找回密码

蓝光电影网

查看: 10|回复: 0

[动作] 弃宝之岛:遥与魔法镜 Oblivion.Island.Haruka.and.the.Magic.Mirror.2009.1080p.BluRay.x264-SPLiTSViLLE 5.45GB

[复制链接]
蓝光币
511
发表于 2019-8-19 00:42:42 | 显示全部楼层 |阅读模式


◎译  名 弃宝之岛:遥与魔法镜
◎片  名 ホッタラケの島 ~遥と魔法の鏡~
◎年  代 2009
◎产  地 日本
◎类  别 行动 / 动画 / 家庭 / 奇异 / 冒险
◎语  言 日语
◎上映日期 2009-08-22
◎IMDb评分  6.9/10 from 627 users
◎IMDb链接  http://www.imdb.com/title/tt1468322
◎豆瓣评分 7.8/10 from 4550 users
◎豆瓣链接 https://movie.douban.com/subject/3765257/
◎片  长 Japan: 93 分钟
◎导  演 佐藤信介 Shinsuke Sato
◎编  剧 安達寛高 / 佐藤信介 Shinsuke Sato
◎主  演 绫濑遥 Haruka Ayase
       户田菜穗 Naho Toda
       大森南朋 Nao Omori
       谷村美月 Mitsuki Tanimura
       家弓家正 Iemasa Kayumi
       松元环季 Tamaki Matsumoto
       泽城美雪 Miyuki Sawashiro

◎标  签 动画 | 日本动画 | 日本 | 魔幻 | 3D | 戏院版 | 佐藤信介 | 动漫
◎简  介  
  小遥(绫濑遥 配音)是一位普通的十六岁高中女生,母亲(户田菜穗 配音)早早的就分开了她,现在,小遥和父亲(大森南朋 配音)一路过着相依为命的生活。某日,小遥单独一人来到了位于武藏野的一间神社内,这里留有她童年时代的美好记忆。但是,令小遥没有想到的是,她居然发现了一只正在搬运工具的狐狸(泽城美雪 配音)。
  跟随着狐狸的脚步,小遥被传送到了异天下“弃宝之岛”上,这里充溢着被人类抛弃的渣滓和废物。在这里,小遥和狐狸重逢了,她希望狐狸可以帮她找回母亲已经送给她的一把镜子,不即不离之下,一人一狐踏上了旅途。弃宝之岛是制止人类进入的,是以,小遥一边寻觅镜子,一边还要隐藏踪影,但是,她的行迹还是被男爵发现了。
◎获奖情况  
  第33届日本电影学院奖(2010)
  最好动画片(提名) 佐藤信介
  1. Video
  2. ID                                       : 1
  3. Format                                   : AVC
  4. Format/Info                              : Advanced Video Codec
  5. Format profile                           : [email protected]
  6. Format settings, CABAC                   : Yes
  7. Format settings, ReFrames                : 4 frames
  8. Codec ID                                 : V_MPEG4/ISO/AVC
  9. Duration                                 : 1h 39mn
  10. Bit rate                                 : 6 528 Kbps
  11. Width                                    : 1 920 pixels
  12. Height                                   : 1 080 pixels
  13. Display aspect ratio                     : 16:9
  14. Frame rate mode                          : Constant
  15. Frame rate                               : 23.976 (24000/1001) fps
  16. Original frame rate                      : 23.976 (23976/1000) fps
  17. Color space                              : YUV
  18. Chroma subsampling                       : 4:2:0
  19. Bit depth                                : 8 bits
  20. Scan type                                : Progressive
  21. Bits/(Pixel*Frame)                       : 0.131
  22. Stream size                              : 4.45 GiB (82%)
  23. Writing library                          : x264 core 130 r2273 b3065e6
  24. Encoding settings                        : cabac=1 / ref=4 / deblock=1:0:0 / analyse=0x3:0x133 / me=umh / subme=7 / psy=1 / psy_rd=1.00:0.00 / mixed_ref=1 / me_range=16 / chroma_me=1 / trellis=1 / 8x8dct=1 / cqm=0 / deadzone=21,11 / fast_pskip=0 / chroma_qp_offset=-2 / threads=12 / lookahead_threads=2 / sliced_threads=0 / nr=0 / decimate=1 / interlaced=0 / bluray_compat=0 / constrained_intra=0 / bframes=3 / b_pyramid=2 / b_adapt=2 / b_bias=0 / direct=3 / weightb=1 / open_gop=0 / weightp=2 / keyint=250 / keyint_min=23 / scenecut=40 / intra_refresh=0 / rc_lookahead=50 / rc=2pass / mbtree=1 / bitrate=6528 / ratetol=1.0 / qcomp=0.60 / qpmin=0 / qpmax=69 / qpstep=4 / cplxblur=20.0 / qblur=0.5 / ip_ratio=1.40 / aq=1:1.00
  25. Language                                 : English
  26. Default                                  : Yes
  27. Forced                                   : No
  28. Audio #1
  29. ID                                       : 2
  30. Format                                   : AC-3
  31. Format/Info                              : Audio Coding 3
  32. Mode extension                           : CM (complete main)
  33. Format settings, Endianness              : Big
  34. Codec ID                                 : A_AC3
  35. Duration                                 : 1h 39mn
  36. Bit rate mode                            : Constant
  37. Bit rate                                 : 640 Kbps
  38. Channel(s)                               : 6 channels
  39. Channel positions                        : Front: L C R, Side: L R, LFE
  40. Sampling rate                            : 48.0 KHz
  41. Frame rate                               : 31.250 fps (1536 spf)
  42. Compression mode                         : Lossy
  43. Stream size                              : 458 MiB (8%)
  44. Language                                 : English
  45. Default                                  : Yes
  46. Forced                                   : No
  47. Audio #2
  48. ID                                       : 3
  49. Format                                   : AC-3
  50. Format/Info                              : Audio Coding 3
  51. Mode extension                           : CM (complete main)
  52. Format settings, Endianness              : Big
  53. Codec ID                                 : A_AC3
  54. Duration                                 : 1h 39mn
  55. Bit rate mode                            : Constant
  56. Bit rate                                 : 640 Kbps
  57. Channel(s)                               : 6 channels
  58. Channel positions                        : Front: L C R, Side: L R, LFE
  59. Sampling rate                            : 48.0 KHz
  60. Frame rate                               : 31.250 fps (1536 spf)
  61. Compression mode                         : Lossy
  62. Stream size                              : 458 MiB (8%)
  63. Language                                 : Japanese
  64. Default                                  : No
  65. Forced                                   : No
  66. Text
  67. ID                                       : 4
  68. Format                                   : UTF-8
  69. Codec ID                                 : S_TEXT/UTF8
  70. Codec ID/Info                            : UTF-8 Plain Text
  71. Language                                 : English
  72. Default                                  : Yes
  73. Forced                                   : No
  74. Menu
  75. 00:00:00.000                             : en:00:00:00.000
  76. 00:06:18.378                             : en:00:06:18.378
  77. 00:09:46.503                             : en:00:09:46.503
  78. 00:12:24.994                             : en:00:12:24.994
  79. 00:15:37.478                             : en:00:15:37.478
  80. 00:21:00.259                             : en:00:21:00.259
  81. 00:25:08.674                             : en:00:25:08.674
  82. 00:28:53.857                             : en:00:28:53.857
  83. 00:34:53.925                             : en:00:34:53.925
  84. 00:41:21.437                             : en:00:41:21.437
  85. 00:48:08.302                             : en:00:48:08.302
  86. 00:53:36.839                             : en:00:53:36.839
  87. 00:58:04.398                             : en:00:58:04.398
  88. 01:02:49.391                             : en:01:02:49.391
  89. 01:07:34.592                             : en:01:07:34.592
  90. 01:11:41.005                             : en:01:11:41.005
  91. 01:15:28.274                             : en:01:15:28.274
  92. 01:19:28.347                             : en:01:19:28.347
  93. 01:23:57.157                             : en:01:23:57.157
  94. 01:27:16.314                             : en:01:27:16.314
  95. 01:30:13.408                             : en:01:30:13.408
  96. 01:39:09.652                             : en:01:39:09.652
复制代码









                                       
                                       

                                       
                                       
                                       




回复

使用道具 举报

懒得打字嘛,点击右侧快捷回复 【右侧内容,后台自定义】
您需要登录后才可以回帖 登录 | 立即加入

本版积分规则

Archiver|小黑屋| 蓝光电影网 |网站地图

Copyright © 2021 Comsenz Inc. Powered by 蓝光电影网

蓝光电影网

本站内容由用户自主分享和转载自互联网,转载目的在于传递更多信息,并不代表本网赞同其观点和对其真实性负责。

如有侵权、违反国家法律政策行为,请联系我们,我们会第一时间及时清除和处理!

举报反馈邮箱:[email protected]

快速回复 返回顶部 返回列表