找回密码

蓝光电影网

查看: 22|回复: 0

[剧情] 结伴婚礼/加一 Plus.One.2019.1080p.BluRay.REMUX.AVC.DTS-HD.MA.5.1-FGT 16.86GB

[复制链接]
蓝光币
515
发表于 2019-8-10 23:07:24 | 显示全部楼层 |阅读模式


◎译  名 结伴婚礼 / 加一
◎片  名 Plus One
◎年  代 2019
◎产  地 美国
◎类  别 剧情 / 笑剧 / 恋爱
◎语  言 英语
◎上映日期 2019-06-14(美国)
◎IMDb评分  8.3/10 from 32 users
◎IMDb链接  http://www.imdb.com/title/tt7645122
◎豆瓣评分 0/10 from 0 users
◎豆瓣链接 https://movie.douban.com/subject/30159426/
◎导  演 Jeff Chan / Andrew Rhymer
◎编  剧 Jeff Chan / Andrew Rhymer
◎主  演 玛雅·厄斯金 Maya Erskine
      杰克·奎德 Jack Quaid
      小艾德·博格里 Ed Begley Jr.
      芬·维特洛克 Finn Wittrock
      Betsy Sodaro
      杰夫·沃德 Jeff Ward

◎标  签 美国 | 电影 | 笑剧
◎简  介  
  劳模将饰演瑞秋,一个刚竣事多年爱情的女人,目睹昔日好友已纷纷成家,新晋单身的她只好乞助粗鲁却“懂行”的萨莫为她寻觅快意郎君,截然分歧的两人凑到一路自然笑料百出。
  1. Video
  2. ID                                       : 1
  3. Format                                   : AVC
  4. Format/Info                              : Advanced Video Codec
  5. Format profile                           : [email protected]
  6. Format settings                          : CABAC / 4 Ref Frames
  7. Format settings, CABAC                   : Yes
  8. Format settings, Reference frames        : 4 frames
  9. Codec ID                                 : V_MPEG4/ISO/AVC
  10. Duration                                 : 1 h 38 min
  11. Bit rate mode                            : Variable
  12. Bit rate                                 : 20.9 Mb/s
  13. Maximum bit rate                         : 36.0 Mb/s
  14. Width                                    : 1 920 pixels
  15. Height                                   : 1 080 pixels
  16. Display aspect ratio                     : 16:9
  17. Frame rate mode                          : Constant
  18. Frame rate                               : 23.976 (24000/1001) FPS
  19. Color space                              : YUV
  20. Chroma subsampling                       : 4:2:0
  21. Bit depth                                : 8 bits
  22. Scan type                                : Progressive
  23. Bits/(Pixel*Frame)                       : 0.421
  24. Stream size                              : 14.4 GiB (85%)
  25. Title                                    : Plus.One.2019.1080p.BluRay.REMUX.AVC.DTS-HD.MA.5.1-FGT
  26. Language                                 : English
  27. Default                                  : No
  28. Forced                                   : No
  29. Audio
  30. ID                                       : 2
  31. Format                                   : DTS XLL
  32. Format/Info                              : Digital Theater Systems
  33. Commercial name                          : DTS-HD Master Audio
  34. Codec ID                                 : A_DTS
  35. Duration                                 : 1 h 38 min
  36. Bit rate mode                            : Variable
  37. Bit rate                                 : 3 531 kb/s
  38. Channel(s)                               : 6 channels
  39. Channel layout                           : C L R Ls Rs LFE
  40. Sampling rate                            : 48.0 kHz
  41. Frame rate                               : 93.750 FPS (512 SPF)
  42. Bit depth                                : 24 bits
  43. Compression mode                         : Lossless
  44. Stream size                              : 2.43 GiB (14%)
  45. Title                                    : Plus.One.2019.1080p.BluRay.REMUX.AVC.DTS-HD.MA.5.1-FGT
  46. Language                                 : English
  47. Default                                  : Yes
  48. Forced                                   : No
  49. Text #1
  50. ID                                       : 3
  51. Format                                   : UTF-8
  52. Codec ID                                 : S_TEXT/UTF8
  53. Codec ID/Info                            : UTF-8 Plain Text
  54. Duration                                 : 1 h 36 min
  55. Bit rate                                 : 90 b/s
  56. Count of elements                        : 2178
  57. Stream size                              : 64.5 KiB (0%)
  58. Title                                    : English-SRT
  59. Language                                 : English
  60. Default                                  : Yes
  61. Forced                                   : No
  62. Text #2
  63. ID                                       : 4
  64. Format                                   : PGS
  65. Muxing mode                              : zlib
  66. Codec ID                                 : S_HDMV/PGS
  67. Codec ID/Info                            : Picture based subtitle format used on BDs/HD-DVDs
  68. Duration                                 : 1 h 37 min
  69. Bit rate                                 : 46.8 kb/s
  70. Count of elements                        : 4641
  71. Stream size                              : 32.5 MiB (0%)
  72. Title                                    : English-PGS
  73. Language                                 : English
  74. Default                                  : No
  75. Forced                                   : No
  76. Text #3
  77. ID                                       : 5
  78. Format                                   : PGS
  79. Muxing mode                              : zlib
  80. Codec ID                                 : S_HDMV/PGS
  81. Codec ID/Info                            : Picture based subtitle format used on BDs/HD-DVDs
  82. Duration                                 : 1 h 34 min
  83. Bit rate                                 : 39.2 kb/s
  84. Count of elements                        : 4139
  85. Stream size                              : 26.4 MiB (0%)
  86. Title                                    : Spanish-PGS
  87. Language                                 : Spanish
  88. Default                                  : No
  89. Forced                                   : No
  90. Text #4
  91. ID                                       : 6
  92. Format                                   : PGS
  93. Muxing mode                              : zlib
  94. Codec ID                                 : S_HDMV/PGS
  95. Codec ID/Info                            : Picture based subtitle format used on BDs/HD-DVDs
  96. Duration                                 : 1 h 34 min
  97. Bit rate                                 : 43.1 kb/s
  98. Count of elements                        : 4207
  99. Stream size                              : 29.1 MiB (0%)
  100. Title                                    : French-PGS
  101. Language                                 : French
  102. Default                                  : No
  103. Forced                                   : No
  104. Menu
  105. 00:00:00.000                             : en:Chapter 01
  106. 00:07:10.263                             : en:Chapter 02
  107. 00:14:02.424                             : en:Chapter 03
  108. 00:24:10.323                             : en:Chapter 04
  109. 00:32:50.468                             : en:Chapter 05
  110. 00:50:10.298                             : en:Chapter 06
  111. 01:17:48.455                             : en:Chapter 07
  112. 01:34:42.009                             : en:Chapter 08
复制代码






                                       
                                       

                                       
                                       
                                       




回复

使用道具 举报

懒得打字嘛,点击右侧快捷回复 【右侧内容,后台自定义】
您需要登录后才可以回帖 登录 | 立即加入

本版积分规则

Archiver|小黑屋| 蓝光电影网 |网站地图

Copyright © 2021 Comsenz Inc. Powered by 蓝光电影网

蓝光电影网

本站内容由用户自主分享和转载自互联网,转载目的在于传递更多信息,并不代表本网赞同其观点和对其真实性负责。

如有侵权、违反国家法律政策行为,请联系我们,我们会第一时间及时清除和处理!

举报反馈邮箱:[email protected]

快速回复 返回顶部 返回列表