找回密码

蓝光电影网

查看: 22|回复: 0

[喜剧] 单身公寓/不是冤家不聚头 The.Odd.Couple.1968.1080p.BluRay.X264-AMIABLE 7.65GB

[复制链接]
蓝光币
515
发表于 2020-11-21 09:46:44 | 显示全部楼层 |阅读模式


◎译  名 单身公寓/不是朋友不聚头/怪僻的一对/天生朋友/妙人妙事/扭计朋友/财迷心窍/重色轻友
◎片  名 The Odd Couple
◎年  代 1968
◎产  地 美国
◎类  别 笑剧 / 恋爱
◎语  言 英语
◎上映日期 1968-05-02(美国)
◎IMDb评分  7.7/10 from 31231 users
◎IMDb链接  https://www.imdb.com/title/tt0063374/
◎豆瓣评分 7.7/10 from 1618 users
◎豆瓣链接 https://movie.douban.com/subject/1303423/
◎片  长 105分钟
◎导  演 吉恩·萨克斯 Gene Saks
◎编  剧 尼尔·西蒙 Neil Simon
◎主  演 杰克·莱蒙 Jack Lemmon
       沃尔特·马修 Walter Matthau
       约翰·菲德勒 John Fiedler
       杰里·布赫克 Jerry Buchek
◎标  签 笑剧 | 美国 | 美国电影 | 1968 | 1960s | JackLemmon | 电影 | 恋爱
◎简  介


  和妻子豪情破裂后,报社撰稿人菲利克斯(杰克·莱蒙 Jack Lemmon 饰)被赶出了家门,无法之下,他只得临时搬到朋友奥斯卡(沃尔特·马修 Walter Matthau 饰)的住处,和这个了解多年的好伙伴成为了室友。奥斯卡和菲利克斯的性情简直是冰火两重天,前者风格怪僻本性孤僻经常将家里弄得一团糟,尔后者却是个喜好清洁和烹饪的好好师长。
  
  虽然“同居”中的两人经常由于一些小事拌嘴,但他们的生活都由于对方的存在而有了一丝的朝气,隔邻住的一对来自英国的姐妹花更是赐与了他们无尽的空想。在奥斯卡的死力否决下,菲利克斯还是将两姐妹约请抵家中做客,没想到四人相处的不错,当局势向着理想的偏向成长时,奥斯卡却打死也不愿继续了,抓狂的菲利克斯大发雷霆,这对好友之间的友谊朝不保夕。
◎获奖情况
  第41届奥斯卡金像奖 ?(1969)
  最好改编剧本(提名) 尼尔·西蒙
  最好剪辑(提名) 弗兰克·布拉赫特
  1. Video
  2. ID                                       : 1
  3. Format                                   : AVC
  4. Format/Info                              : Advanced Video Codec
  5. Format profile                           : [email protected]
  6. Format settings                          : CABAC / 5 Ref Frames
  7. Format settings, CABAC                   : Yes
  8. Format settings, Reference frames        : 5 frames
  9. Codec ID                                 : V_MPEG4/ISO/AVC
  10. Duration                                 : 1 h 45 min
  11. Bit rate                                 : 8 878 kb/s
  12. Width                                    : 1 920 pixels
  13. Height                                   : 824 pixels
  14. Display aspect ratio                     : 2.35:1
  15. Frame rate mode                          : Constant
  16. Frame rate                               : 23.976 (24000/1001/189150) FPS
  17. Color space                              : YUV
  18. Chroma subsampling                       : 4:2:0
  19. Bit depth                                : 8 bits
  20. Scan type                                : Progressive
  21. Bits/(Pixel*Frame)                       : 0.234
  22. Stream size                              : 6.39 GiB (83%)
  23. Writing library                          : x264 core 133 r2334 a3ac64b
  24. Encoding settings                        : cabac=1 / ref=5 / deblock=1:-3:-3 / analyse=0x3:0x113 / me=umh / subme=8 / psy=1 / psy_rd=1.00:0.00 / mixed_ref=1 / me_range=16 / chroma_me=1 / trellis=1 / 8x8dct=1 / cqm=0 / deadzone=21,11 / fast_pskip=1 / chroma_qp_offset=-2 / threads=12 / lookahead_threads=2 / sliced_threads=0 / nr=0 / decimate=1 / interlaced=0 / bluray_compat=0 / constrained_intra=0 / bframes=3 / b_pyramid=2 / b_adapt=2 / b_bias=0 / direct=3 / weightb=1 / open_gop=0 / weightp=2 / keyint=240 / keyint_min=24 / scenecut=40 / intra_refresh=0 / rc_lookahead=50 / rc=2pass / mbtree=1 / bitrate=8878 / ratetol=1.0 / qcomp=0.60 / qpmin=0 / qpmax=69 / qpstep=4 / cplxblur=20.0 / qblur=0.5 / ip_ratio=1.40 / aq=1:1.00
  25. Language                                 : English
  26. Default                                  : Yes
  27. Forced                                   : No

  28. Audio
  29. ID                                       : 2
  30. Format                                   : DTS
  31. Format/Info                              : Digital Theater Systems
  32. Codec ID                                 : A_DTS
  33. Duration                                 : 1 h 45 min
  34. Bit rate mode                            : Constant
  35. Bit rate                                 : 1 509 kb/s
  36. Channel(s)                               : 6 channels
  37. Channel layout                           : C L R Ls Rs LFE
  38. Sampling rate                            : 48.0 kHz
  39. Frame rate                               : 93.750 FPS (512 SPF)
  40. Bit depth                                : 24 bits
  41. Compression mode                         : Lossy
  42. Stream size                              : 1.11 GiB (15%)
  43. Language                                 : English
  44. Default                                  : Yes
  45. Forced                                   : No

  46. Text #1
  47. ID                                       : 3
  48. Format                                   : UTF-8
  49. Codec ID                                 : S_TEXT/UTF8
  50. Codec ID/Info                            : UTF-8 Plain Text
  51. Title                                    : SDH
  52. Language                                 : English
  53. Default                                  : No
  54. Forced                                   : No

  55. Text #2
  56. ID                                       : 4
  57. Format                                   : UTF-8
  58. Codec ID                                 : S_TEXT/UTF8
  59. Codec ID/Info                            : UTF-8 Plain Text
  60. Language                                 : English
  61. Default                                  : No
  62. Forced                                   : No

  63. Menu
  64. 00:00:00.000                             : en:00:00:00.000
  65. 00:08:55.618                             : en:00:08:55.618
  66. 00:19:32.296                             : en:00:19:32.296
  67. 00:31:45.821                             : en:00:31:45.821
  68. 00:40:17.457                             : en:00:40:17.457
  69. 00:44:27.665                             : en:00:44:27.665
  70. 00:46:43.384                             : en:00:46:43.384
  71. 00:50:37.785                             : en:00:50:37.785
  72. 00:55:11.725                             : en:00:55:11.725
  73. 00:58:38.724                             : en:00:58:38.724
  74. 01:05:39.894                             : en:01:05:39.894
  75. 01:22:30.946                             : en:01:22:30.946
  76. 01:29:22.941                             : en:01:29:22.941
  77. 01:34:03.221                             : en:01:34:03.221
  78. 01:39:35.553                             : en:01:39:35.553
  79. 01:44:22.131                             : en:01:44:22.131
复制代码






                                       
                                       

                                       
                                       
                                       




回复

使用道具 举报

懒得打字嘛,点击右侧快捷回复 【右侧内容,后台自定义】
您需要登录后才可以回帖 登录 | 立即加入

本版积分规则

Archiver|小黑屋| 蓝光电影网 |网站地图

Copyright © 2021 Comsenz Inc. Powered by 蓝光电影网

蓝光电影网

本站内容由用户自主分享和转载自互联网,转载目的在于传递更多信息,并不代表本网赞同其观点和对其真实性负责。

如有侵权、违反国家法律政策行为,请联系我们,我们会第一时间及时清除和处理!

举报反馈邮箱:[email protected]

快速回复 返回顶部 返回列表