找回密码

蓝光电影网

查看: 16|回复: 0

[其他] 鬼恋/人鬼大火拼 The.Entity.1982.1080p.BluRay.X264-AMIABLE 8.74GB

[复制链接]
蓝光币
519
发表于 2020-9-29 10:16:46 | 显示全部楼层 |阅读模式


◎译  名 鬼恋/人鬼大火拼/灵体
◎片  名 The Entity
◎年  代 1982
◎产  地 美国
◎类  别 悬疑 / 惊悚 / 可骇
◎语  言 英语
◎上映日期 1983-02-04(美国)
◎IMDb评分  6.7/10 from 14477 users
◎IMDb链接  https://www.imdb.com/title/tt0082334/
◎豆瓣评分 6.1/10 from 1584 users
◎豆瓣链接 https://movie.douban.com/subject/1304545/
◎片  长 125 分钟
◎导  演 西德尼·J·弗里尔 Sidney J. Furie
◎编  剧 弗兰克·德·费里塔 Frank De Felitta
◎主  演 阿历克斯·罗克 Alex Rocco
       杰奎琳·布鲁克斯 Jacqueline Brookes
       迈克尔·奥尔德雷奇 Michael Alldredge
       John Branagan
       乔治·科 George Coe
       罗恩·西维尔 Ron Silver
       克里斯·豪厄尔 Chris Howell
       艾伦·瑞奇 Allan Rich
       芭芭拉·赫希 Barbara Hershey
       李·维尔科夫 Lee Wilkof
       Paula Victor
       Natasha Ryan
       科特·罗文斯 Curt Lowens
       大卫·拉比奥萨 David Labiosa
       雷蒙德·辛格 Raymond Singer
       苏利伯维尔 Sully Boyar
       玛格丽特·布赖 Margaret Blye
       Melanie Gaffin
◎标  签 鬼恋 | 可骇 | 美国 | 惊悚 | 悬疑 | 下载 | 灵体 | 美国电影
◎简  介


  卡拉(芭芭拉·赫希 Barbara Hershey 饰)的丈夫在一场意外中不幸归天,卡拉不能不单独抚养他们的两个孩子,日子过得非常辛劳。某天夜里,卡拉碰见了科学没法诠释的怪事,她被一股强大而又奥秘的气力强横了。由于局势过于诡异,卡拉将此归结于自己在做梦,但这股气力并没有就此消失,而是一而再再而三的骚扰着卡拉。
  
  恐惧当中,卡拉向心理医生库利(Jacqueline Brookes 饰)乞助,但库利以为这只是卡拉压力太大而发生的幻觉。科学没法帮助卡拉,因而卡拉转而找到了一位周易家,周易家在卡拉的寝室里放置了特别的摄影器械,而且终极拍摄下了惊悚可骇的一幕。证据证实了卡拉并没有疯,但这也意味着,他们必必要和阿谁邪恶的气力正面匹敌。
  1. Video
  2. ID                                       : 1
  3. Format                                   : AVC
  4. Format/Info                              : Advanced Video Codec
  5. Format profile                           : [email protected]
  6. Format settings                          : CABAC / 5 Ref Frames
  7. Format settings, CABAC                   : Yes
  8. Format settings, Reference frames        : 5 frames
  9. Codec ID                                 : V_MPEG4/ISO/AVC
  10. Duration                                 : 2 h 5 min
  11. Bit rate                                 : 9 360 kb/s
  12. Width                                    : 1 920 pixels
  13. Height                                   : 816 pixels
  14. Display aspect ratio                     : 2.35:1
  15. Frame rate mode                          : Constant
  16. Frame rate                               : 23.976 (24000/1001/189150) FPS
  17. Color space                              : YUV
  18. Chroma subsampling                       : 4:2:0
  19. Bit depth                                : 8 bits
  20. Scan type                                : Progressive
  21. Bits/(Pixel*Frame)                       : 0.249
  22. Stream size                              : 8.01 GiB (92%)
  23. Writing library                          : x264 core 140 r2377 1ca7bb9
  24. Encoding settings                        : cabac=1 / ref=5 / deblock=1:-3:-3 / analyse=0x3:0x113 / me=umh / subme=8 / psy=1 / psy_rd=1.00:0.00 / mixed_ref=1 / me_range=16 / chroma_me=1 / trellis=1 / 8x8dct=1 / cqm=0 / deadzone=21,11 / fast_pskip=1 / chroma_qp_offset=-2 / threads=12 / lookahead_threads=2 / sliced_threads=0 / nr=0 / decimate=1 / interlaced=0 / bluray_compat=0 / constrained_intra=0 / bframes=3 / b_pyramid=2 / b_adapt=2 / b_bias=0 / direct=3 / weightb=1 / open_gop=0 / weightp=2 / keyint=240 / keyint_min=24 / scenecut=40 / intra_refresh=0 / rc_lookahead=50 / rc=2pass / mbtree=1 / bitrate=9360 / ratetol=1.0 / qcomp=0.60 / qpmin=0 / qpmax=69 / qpstep=4 / cplxblur=20.0 / qblur=0.5 / ip_ratio=1.40 / aq=1:1.00
  25. Language                                 : English
  26. Default                                  : Yes
  27. Forced                                   : No

  28. Audio
  29. ID                                       : 2
  30. Format                                   : AC-3
  31. Format/Info                              : Audio Coding 3
  32. Commercial name                          : Dolby Digital
  33. Codec ID                                 : A_AC3
  34. Duration                                 : 2 h 5 min
  35. Bit rate mode                            : Constant
  36. Bit rate                                 : 640 kb/s
  37. Channel(s)                               : 6 channels
  38. Channel layout                           : L R C LFE Ls Rs
  39. Sampling rate                            : 48.0 kHz
  40. Frame rate                               : 31.250 FPS (1536 SPF)
  41. Compression mode                         : Lossy
  42. Stream size                              : 573 MiB (6%)
  43. Language                                 : English
  44. Service kind                             : Complete Main
  45. Default                                  : Yes
  46. Forced                                   : No

  47. Text #1
  48. ID                                       : 3
  49. Format                                   : UTF-8
  50. Codec ID                                 : S_TEXT/UTF8
  51. Codec ID/Info                            : UTF-8 Plain Text
  52. Title                                    : SDH
  53. Language                                 : English
  54. Default                                  : No
  55. Forced                                   : No

  56. Text #2
  57. ID                                       : 4
  58. Format                                   : UTF-8
  59. Codec ID                                 : S_TEXT/UTF8
  60. Codec ID/Info                            : UTF-8 Plain Text
  61. Language                                 : English
  62. Default                                  : No
  63. Forced                                   : No

  64. Menu
  65. 00:00:00.000                             : en:00:00:00.000
  66. 00:07:58.937                             : en:00:07:58.937
  67. 00:18:54.717                             : en:00:18:54.717
  68. 00:28:05.559                             : en:00:28:05.559
  69. 00:42:06.065                             : en:00:42:06.065
  70. 00:50:05.836                             : en:00:50:05.836
  71. 00:59:27.856                             : en:00:59:27.856
  72. 01:09:06.017                             : en:01:09:06.017
  73. 01:21:21.960                             : en:01:21:21.960
  74. 01:31:06.753                             : en:01:31:06.753
  75. 01:40:38.741                             : en:01:40:38.741
  76. 01:50:04.556                             : en:01:50:04.556
  77. 02:01:41.628                             : en:02:01:41.628
复制代码








                                       
                                       

                                       
                                       
                                       




回复

使用道具 举报

懒得打字嘛,点击右侧快捷回复 【右侧内容,后台自定义】
您需要登录后才可以回帖 登录 | 立即加入

本版积分规则

Archiver|小黑屋| 蓝光电影网 |网站地图

Copyright © 2021 Comsenz Inc. Powered by 蓝光电影网

蓝光电影网

本站内容由用户自主分享和转载自互联网,转载目的在于传递更多信息,并不代表本网赞同其观点和对其真实性负责。

如有侵权、违反国家法律政策行为,请联系我们,我们会第一时间及时清除和处理!

举报反馈邮箱:[email protected]

快速回复 返回顶部 返回列表