找回密码

蓝光电影网

查看: 17|回复: 0

[剧情] 布莱顿惊魂 Body.at.Brighton.Rock.2019.1080p.BluRay.REMUX.AVC.DTS-HD.MA.5.1-FGT 17.14GB

[复制链接]
蓝光币
519
发表于 2019-8-7 17:25:26 | 显示全部楼层 |阅读模式


◎译  名 布莱顿惊魂
◎片  名 Body at Brighton Rock
◎年  代 2019
◎产  地 美国
◎类  别 剧情
◎语  言 英语
◎上映日期 2019-03-08(西南偏南电影节) / 2019-04-26(美国)
◎IMDb评分  4.8/10 from 289 users
◎IMDb链接  http://www.imdb.com/title/tt7942746
◎豆瓣评分 3.8/10 from 86 users
◎豆瓣链接 https://movie.douban.com/subject/30476333/
◎片  长 87分钟
◎导  演 罗克珊·本杰明 Roxanne Benjamin
◎主  演 艾米莉·奥尔索斯 Emily Althaus
      米兰达·贝利 Miranda Bailey
      马丁·斯潘尼尔斯 Martin Spanjers
      马特·皮特斯 Matt Peters
      苏珊·伯克 Susan Burke
      约翰·盖兹 John Getz

◎标  签 惊悚 | 美国 | 2019 | 艾米莉·奥尔索斯 | 美国电影 | 悬疑 | 美國電影 | 米兰达·贝利
◎简  介  
  Wendy(Karina Fontes饰)是个公园暑期工,尽力想要证实自己有才能胜任这份工作。但是她不幸在山中迷路,发现了一个尸身而且被困在了案发现场。在经过无线电对讲机联络了治理方以后,作为公园职员,她必须庇护好案发现场,和尸身共度一晚,她不能不面临黑暗和恐惧...
  1. Video
  2. ID                                       : 1
  3. Format                                   : AVC
  4. Format/Info                              : Advanced Video Codec
  5. Format profile                           : [email protected]
  6. Format settings                          : CABAC / 4 Ref Frames
  7. Format settings, CABAC                   : Yes
  8. Format settings, Reference frames        : 4 frames
  9. Codec ID                                 : V_MPEG4/ISO/AVC
  10. Duration                                 : 1 h 27 min
  11. Bit rate mode                            : Variable
  12. Bit rate                                 : 24.0 Mb/s
  13. Maximum bit rate                         : 35.0 Mb/s
  14. Width                                    : 1 920 pixels
  15. Height                                   : 1 080 pixels
  16. Display aspect ratio                     : 16:9
  17. Frame rate mode                          : Constant
  18. Frame rate                               : 23.976 (24000/1001) FPS
  19. Standard                                 : NTSC
  20. Color space                              : YUV
  21. Chroma subsampling                       : 4:2:0
  22. Bit depth                                : 8 bits
  23. Scan type                                : Progressive
  24. Bits/(Pixel*Frame)                       : 0.483
  25. Stream size                              : 14.6 GiB (85%)
  26. Title                                    : Body.at.Brighton.Rock.2019.1080p.BluRay.REMUX.AVC.DTS-HD.MA.5.1-FGT
  27. Language                                 : English
  28. Default                                  : No
  29. Forced                                   : No
  30. Color range                              : Limited
  31. Color primaries                          : BT.709
  32. Transfer characteristics                 : BT.709
  33. Matrix coefficients                      : BT.709
  34. Audio #1
  35. ID                                       : 2
  36. Format                                   : DTS XLL
  37. Format/Info                              : Digital Theater Systems
  38. Commercial name                          : DTS-HD Master Audio
  39. Codec ID                                 : A_DTS
  40. Duration                                 : 1 h 27 min
  41. Bit rate mode                            : Variable
  42. Bit rate                                 : 3 876 kb/s
  43. Channel(s)                               : 6 channels
  44. Channel layout                           : C L R Ls Rs LFE
  45. Sampling rate                            : 48.0 kHz
  46. Frame rate                               : 93.750 FPS (512 SPF)
  47. Bit depth                                : 24 bits
  48. Compression mode                         : Lossless
  49. Stream size                              : 2.36 GiB (14%)
  50. Title                                    : Body.at.Brighton.Rock.2019.1080p.BluRay.REMUX.AVC.DTS-HD.MA.5.1-FGT
  51. Language                                 : English
  52. Default                                  : Yes
  53. Forced                                   : No
  54. Audio #2
  55. ID                                       : 3
  56. Format                                   : AC-3
  57. Format/Info                              : Audio Coding 3
  58. Commercial name                          : Dolby Digital
  59. Codec ID                                 : A_AC3
  60. Duration                                 : 1 h 27 min
  61. Bit rate mode                            : Constant
  62. Bit rate                                 : 192 kb/s
  63. Channel(s)                               : 2 channels
  64. Channel layout                           : L R
  65. Sampling rate                            : 48.0 kHz
  66. Frame rate                               : 31.250 FPS (1536 SPF)
  67. Bit depth                                : 16 bits
  68. Compression mode                         : Lossy
  69. Stream size                              : 120 MiB (1%)
  70. Title                                    : Body.at.Brighton.Rock.2019.1080p.BluRay.REMUX.AVC.DTS-HD.MA.5.1-FGT
  71. Language                                 : English
  72. Service kind                             : Complete Main
  73. Default                                  : No
  74. Forced                                   : No
  75. Text #1
  76. ID                                       : 4
  77. Format                                   : PGS
  78. Muxing mode                              : zlib
  79. Codec ID                                 : S_HDMV/PGS
  80. Codec ID/Info                            : Picture based subtitle format used on BDs/HD-DVDs
  81. Duration                                 : 1 h 24 min
  82. Bit rate                                 : 35.5 kb/s
  83. Count of elements                        : 1456
  84. Stream size                              : 21.5 MiB (0%)
  85. Title                                    : English-PGS
  86. Language                                 : English
  87. Default                                  : Yes
  88. Forced                                   : No
  89. Text #2
  90. ID                                       : 5
  91. Format                                   : PGS
  92. Muxing mode                              : zlib
  93. Codec ID                                 : S_HDMV/PGS
  94. Codec ID/Info                            : Picture based subtitle format used on BDs/HD-DVDs
  95. Duration                                 : 1 h 26 min
  96. Bit rate                                 : 29.1 kb/s
  97. Count of elements                        : 1070
  98. Stream size                              : 17.9 MiB (0%)
  99. Title                                    : Spanish-PGS
  100. Language                                 : Spanish
  101. Default                                  : No
  102. Forced                                   : No
  103. Menu
  104. 00:00:00.000                             : en:Chapter 01
  105. 00:06:58.126                             : en:Chapter 02
  106. 00:14:38.878                             : en:Chapter 03
  107. 00:23:41.294                             : en:Chapter 04
  108. 00:31:44.569                             : en:Chapter 05
  109. 00:37:26.244                             : en:Chapter 06
  110. 00:44:45.683                             : en:Chapter 07
  111. 00:51:00.057                             : en:Chapter 08
  112. 01:01:06.537                             : en:Chapter 09
  113. 01:07:29.795                             : en:Chapter 10
  114. 01:15:43.539                             : en:Chapter 11
  115. 01:24:13.798                             : en:Chapter 12
复制代码






                                       
                                       

                                       
                                       
                                       




回复

使用道具 举报

懒得打字嘛,点击右侧快捷回复 【右侧内容,后台自定义】
您需要登录后才可以回帖 登录 | 立即加入

本版积分规则

Archiver|小黑屋| 蓝光电影网 |网站地图

Copyright © 2021 Comsenz Inc. Powered by 蓝光电影网

蓝光电影网

本站内容由用户自主分享和转载自互联网,转载目的在于传递更多信息,并不代表本网赞同其观点和对其真实性负责。

如有侵权、违反国家法律政策行为,请联系我们,我们会第一时间及时清除和处理!

举报反馈邮箱:[email protected]

快速回复 返回顶部 返回列表