找回密码

蓝光电影网

查看: 11|回复: 0

[其他] 杉原千亩 Persona.Non.Grata.2015.1080p.BluRay.x264.DTS-WiKi 10.43GB

[复制链接]
蓝光币
733
发表于 2020-9-28 09:57:42 | 显示全部楼层 |阅读模式


◎译  名 杉原千亩/Persona Non Grata/Persona Non Grata: The Chiune Sugihara Story
◎片  名 杉原千畝 スギハラ チウネ
◎年  代 2015
◎产  地 日本,波兰,美国
◎类  别 列传 / 历史 / 冒险
◎语  言 日语,英语
◎上映日期 2015-12-05(日本)
◎IMDb评分  6.5/10 from 183 users
◎IMDb链接  https://www.imdb.com/title/tt4162012/
◎豆瓣评分 6.8/10 from 630 users
◎豆瓣链接 https://movie.douban.com/subject/26219196/
◎片  长 139分钟
◎导  演 赛林·葛拉克 Cellin Gluck
◎编  剧 蒲田哲朗 Tetsur? Kamata / 松尾浩道 Hiromichi Matsuo
◎主  演 唐泽寿明 Toshiaki Karasawa
       小雪 Koyuki
       波利斯·席克 Borys Szyc
       阿格涅兹卡·格罗乔斯卡 Agnieszka Grochowska
       小日向文世 Fumiyo Kohinata
       西泽瑞·鲁卡斯瑟维克茨 Cezary Lukaszewicz
       迈克尔·茹拉夫斯基 Michal Zurawski
       塚本高史 Takashi Tsukamoto
       安杰伊·布卢门菲尔德 Andrzej Blumenfeld
       泷藤贤一 Kenichi Takito
       泽比纽·扎马洲斯基 Zbigniew Zamachowski
       板尾创路 Itsuji Itao
       安娜·格莱斯维奇 Anna Grycewicz
       滨田岳 Gaku Hamada
       布洛妮斯拉娃·扎马洲斯基 Bronislawa Zamachowska
◎标  签 日本 | 列传 | 历史 | 战争 | 二战 | 2015 | 人性 | 剧情
◎简  介


  愁云密布的20世纪中叶,身世日本普通家庭的杉原千亩(唐泽寿明 饰)凭仗出色的说话天赋和情报分析才能进入日本外务省,并被外派到伪满洲国交际部工作。他在工作中出色彰显了本身的气力,也被苏联方面判定为“不被接待之人”。在1939年,杉原千亩赴任立陶宛的大使馆,随时监视着欧洲大国的意向。未过量久,德国悍然向波兰策动闪电攻击,破坏力庞大且深远的第二次天下大战旋即拉开序幕。由于残暴的种族清洗,不计其数犹太人沦为难民。他们扶老携幼,寻觅一切能够而微茫的求朝气遇。终极他们涌向日本驻立陶宛大使馆,乞求杉原千亩发放过境签证流亡。
  
  迫于和德国的同盟关系,日本方面拒绝难民的请求。站在国家好处和人性的交界处,杉原千亩做出了严重的决议……
  1. Video
  2. ID                                       : 1
  3. Format                                   : AVC
  4. Format/Info                              : Advanced Video Codec
  5. Format profile                           : [email protected]
  6. Format settings, CABAC                   : Yes
  7. Format settings, ReFrames                : 5 frames
  8. Codec ID                                 : V_MPEG4/ISO/AVC
  9. Duration                                 : 2h 19mn
  10. Bit rate                                 : 9 746 Kbps
  11. Width                                    : 1 920 pixels
  12. Height                                   : 804 pixels
  13. Display aspect ratio                     : 2.40:1
  14. Frame rate mode                          : Constant
  15. Frame rate                               : 24.000 fps
  16. Color space                              : YUV
  17. Chroma subsampling                       : 4:2:0
  18. Bit depth                                : 8 bits
  19. Scan type                                : Progressive
  20. Bits/(Pixel*Frame)                       : 0.263
  21. Stream size                              : 9.47 GiB (91%)
  22. Writing library                          : x264 core 142 r2431+42 c69a006 tMod [[email protected] X86_64]
  23. Encoding settings                        : cabac=1 / ref=5 / deblock=1:-3:-3 / analyse=0x3:0x133 / me=umh / subme=11 / psy=1 / fade_compensate=0.00 / psy_rd=1.05:0.05 / mixed_ref=1 / me_range=64 / chroma_me=1 / trellis=2 / 8x8dct=1 / cqm=0 / deadzone=21,11 / fast_pskip=0 / chroma_qp_offset=-1 / threads=12 / lookahead_threads=3 / sliced_threads=0 / nr=0 / decimate=0 / interlaced=0 / bluray_compat=0 / constrained_intra=0 / fgo=0 / bframes=10 / b_pyramid=2 / b_adapt=2 / b_bias=0 / direct=3 / weightb=1 / open_gop=0 / weightp=2 / keyint=250 / keyint_min=23 / scenecut=40 / intra_refresh=0 / rc=crf / mbtree=0 / crf=16.5000 / qcomp=0.70 / qpmin=0:0:0 / qpmax=69:69:69 / qpstep=4 / ip_ratio=1.40 / pb_ratio=1.30 / aq=1:0.85 / aq-sensitivity=10.00 / aq-factor=1.00:1.00:1.00 / aq2=0 / aq3=0
  24. Language                                 : English
  25. Default                                  : Yes
  26. Forced                                   : No
  27. Color range                              : Limited
  28. Matrix coefficients                      : BT.709
  29. Audio
  30. ID                                       : 2
  31. Format                                   : DTS
  32. Format/Info                              : Digital Theater Systems
  33. Mode                                     : 16
  34. Format settings, Endianness              : Big
  35. Codec ID                                 : A_DTS
  36. Duration                                 : 2h 19mn
  37. Bit rate mode                            : Constant
  38. Bit rate                                 : 768 Kbps
  39. Channel(s)                               : 6 channels
  40. Channel positions                        : Front: L C R, Side: L R, LFE
  41. Sampling rate                            : 48.0 KHz
  42. Frame rate                               : 93.750 fps (512 spf)
  43. Bit depth                                : 16 bits
  44. Compression mode                         : Lossy
  45. Stream size                              : 764 MiB (7%)
  46. Language                                 : English
  47. Default                                  : Yes
  48. Forced                                   : No
  49. Text
  50. ID                                       : 3
  51. Format                                   : ASS
  52. Codec ID                                 : S_TEXT/ASS
  53. Codec ID/Info                            : Advanced Sub Station Alpha
  54. Compression mode                         : Lossless
  55. Title                                    : CHT
  56. Language                                 : Chinese
  57. Default                                  : No
  58. Forced                                   : No
  59. Menu
  60. 00:00:00.000                             : en:00:00:00.000
  61. 00:16:21.022                             : en:00:16:21.022
  62. 00:33:37.182                             : en:00:33:37.182
  63. 00:51:33.757                             : en:00:51:33.757
  64. 01:13:14.015                             : en:01:13:14.015
  65. 01:27:51.975                             : en:01:27:51.975
  66. 01:46:01.272                             : en:01:46:01.272
  67. 02:03:39.120                             : en:02:03:39.120
复制代码









                                       
                                       

                                       
                                       
                                       




回复

使用道具 举报

懒得打字嘛,点击右侧快捷回复 【右侧内容,后台自定义】
您需要登录后才可以回帖 登录 | 立即加入

本版积分规则

Archiver|小黑屋| 蓝光电影网 |网站地图

Copyright © 2021 Comsenz Inc. Powered by 蓝光电影网

蓝光电影网

本站内容由用户自主分享和转载自互联网,转载目的在于传递更多信息,并不代表本网赞同其观点和对其真实性负责。

如有侵权、违反国家法律政策行为,请联系我们,我们会第一时间及时清除和处理!

举报反馈邮箱:[email protected]

快速回复 返回顶部 返回列表