找回密码

蓝光电影网

查看: 18|回复: 0

[喜剧] 无线电时代/岁月流声 Radio.Days.1987.1080p.BluRay.X264-AMIABLE 8.74GB

[复制链接]
蓝光币
519
发表于 2020-11-21 09:38:25 | 显示全部楼层 |阅读模式


◎译  名 无线电时代/光阴流声/阿谁时代
◎片  名 Radio Days
◎年  代 1987
◎产  地 美国
◎类  别 笑剧
◎语  言 英语,西班牙语,意大利语
◎上映日期 1987-01-30
◎IMDb评分  7.5/10 from 31232 users
◎IMDb链接  https://www.imdb.com/title/tt0093818/
◎豆瓣评分 8.3/10 from 4050 users
◎豆瓣链接 https://movie.douban.com/subject/1292894/
◎片  长 88 分钟
◎导  演 伍迪·艾伦 Woody Allen
◎编  剧 伍迪·艾伦 Woody Allen
◎主  演 米亚·法罗 Mia Farrow
       黛安·韦斯特 Dianne Wiest
       迈克·斯塔尔 Mike Starr
       赛斯·格林 Seth Green
       黛安·基顿 Diane Keaton
       丹尼·爱罗 Danny Aiello
       华莱士·肖恩 Wallace Shawn
       朱莉·卡夫娜 Julie Kavner
◎标  签 伍迪·艾伦 | 美国 | WoodyAllen | 笑剧 | 1987 | 美国电影 | 伍迪艾伦 | 1980s
◎简  介


  画外音中,一其中年男人率领观众回到他童年时生活的洛格威小镇,那边有太多围绕着收音机广播的风趣故事……两名小偷潜入一户人家作案,恰巧广播中的电话竞答节目选中了这里,小偷答中了一切题目,第二天男仆人返家,发现钱物丧失但竞答节目标奖品却堆满了门口。碧阿姨与他人相亲时广播中传来火星人打击地球的消息,对方抛下阿姨一败涂地。广播明星罗杰与一位夜总会女郎莎莉(Mia Farrow 饰)纠缠不清,莎莉没有如愿获得广播的工作机遇却在战时节目中大展拳脚。蒙面游侠的持续广播吸引了无数少年,但仆人公始终没法获得一枚游侠戒指……1944年的新年广播中,一切这些典范时代的记忆落下了帷幕。
  
  本片获1988英国电影学院奖最好打扮、最好美工奖。
◎获奖情况
  第60届奥斯卡金像奖 ?(1988)
  最好原创剧本(提名) 伍迪·艾伦
  最好艺术指导(提名) 卡罗尔·乔弗?/?小乔治·德蒂塔?/?桑托·洛奎斯多?/?莱斯利·布鲁姆
  1. Video
  2. ID                                       : 1
  3. Format                                   : AVC
  4. Format/Info                              : Advanced Video Codec
  5. Format profile                           : [email protected]
  6. Format settings                          : CABAC / 4 Ref Frames
  7. Format settings, CABAC                   : Yes
  8. Format settings, Reference frames        : 4 frames
  9. Codec ID                                 : V_MPEG4/ISO/AVC
  10. Duration                                 : 1 h 28 min
  11. Bit rate                                 : 13.4 Mb/s
  12. Width                                    : 1 920 pixels
  13. Height                                   : 1 040 pixels
  14. Display aspect ratio                     : 1.85:1
  15. Frame rate mode                          : Constant
  16. Frame rate                               : 23.976 (24000/1001/189150) FPS
  17. Color space                              : YUV
  18. Chroma subsampling                       : 4:2:0
  19. Bit depth                                : 8 bits
  20. Scan type                                : Progressive
  21. Bits/(Pixel*Frame)                       : 0.279
  22. Stream size                              : 8.09 GiB (93%)
  23. Writing library                          : x264 core 142 r2431 ac76440
  24. Encoding settings                        : cabac=1 / ref=4 / deblock=1:-3:-3 / analyse=0x3:0x113 / me=umh / subme=8 / psy=1 / psy_rd=1.00:0.00 / mixed_ref=1 / me_range=16 / chroma_me=1 / trellis=1 / 8x8dct=1 / cqm=0 / deadzone=21,11 / fast_pskip=1 / chroma_qp_offset=-2 / threads=18 / lookahead_threads=3 / sliced_threads=0 / nr=0 / decimate=1 / interlaced=0 / bluray_compat=0 / constrained_intra=0 / bframes=3 / b_pyramid=2 / b_adapt=2 / b_bias=0 / direct=3 / weightb=1 / open_gop=0 / weightp=2 / keyint=240 / keyint_min=24 / scenecut=40 / intra_refresh=0 / rc_lookahead=50 / rc=2pass / mbtree=1 / bitrate=13375 / ratetol=1.0 / qcomp=0.60 / qpmin=0 / qpmax=69 / qpstep=4 / cplxblur=20.0 / qblur=0.5 / ip_ratio=1.40 / aq=1:1.00
  25. Language                                 : English
  26. Default                                  : Yes
  27. Forced                                   : No

  28. Audio
  29. ID                                       : 2
  30. Format                                   : DTS
  31. Format/Info                              : Digital Theater Systems
  32. Codec ID                                 : A_DTS
  33. Duration                                 : 1 h 28 min
  34. Bit rate mode                            : Constant
  35. Bit rate                                 : 768 kb/s
  36. Channel(s)                               : 1 channel
  37. Channel layout                           : C
  38. Sampling rate                            : 48.0 kHz
  39. Frame rate                               : 93.750 FPS (512 SPF)
  40. Bit depth                                : 24 bits
  41. Compression mode                         : Lossy
  42. Stream size                              : 486 MiB (5%)
  43. Language                                 : English
  44. Default                                  : Yes
  45. Forced                                   : No

  46. Text #1
  47. ID                                       : 3
  48. Format                                   : UTF-8
  49. Codec ID                                 : S_TEXT/UTF8
  50. Codec ID/Info                            : UTF-8 Plain Text
  51. Title                                    : SDH
  52. Language                                 : English
  53. Default                                  : No
  54. Forced                                   : No

  55. Text #2
  56. ID                                       : 4
  57. Format                                   : UTF-8
  58. Codec ID                                 : S_TEXT/UTF8
  59. Codec ID/Info                            : UTF-8 Plain Text
  60. Language                                 : English
  61. Default                                  : No
  62. Forced                                   : No

  63. Menu
  64. 00:00:00.000                             : en:00:00:00.000
  65. 00:10:11.569                             : en:00:10:11.569
  66. 00:18:45.416                             : en:00:18:45.416
  67. 00:24:25.381                             : en:00:24:25.381
  68. 00:28:23.076                             : en:00:28:23.076
  69. 00:33:55.116                             : en:00:33:55.116
  70. 00:41:51.634                             : en:00:41:51.634
  71. 00:49:27.006                             : en:00:49:27.006
  72. 00:59:10.046                             : en:00:59:10.046
  73. 01:08:28.396                             : en:01:08:28.396
  74. 01:16:47.436                             : en:01:16:47.436
  75. 01:25:37.632                             : en:01:25:37.632
复制代码








                                       
                                       

                                       
                                       
                                       




回复

使用道具 举报

懒得打字嘛,点击右侧快捷回复 【右侧内容,后台自定义】
您需要登录后才可以回帖 登录 | 立即加入

本版积分规则

Archiver|小黑屋| 蓝光电影网 |网站地图

Copyright © 2021 Comsenz Inc. Powered by 蓝光电影网

蓝光电影网

本站内容由用户自主分享和转载自互联网,转载目的在于传递更多信息,并不代表本网赞同其观点和对其真实性负责。

如有侵权、违反国家法律政策行为,请联系我们,我们会第一时间及时清除和处理!

举报反馈邮箱:[email protected]

快速回复 返回顶部 返回列表