找回密码

蓝光电影网

查看: 22|回复: 0

[剧情] 托尔金 Tolkien.2019.1080p.BluRay.REMUX.AVC.DTS-HD.MA.5.1-FGT 28.52GB

[复制链接]
蓝光币
515
发表于 2019-8-7 17:21:29 | 显示全部楼层 |阅读模式


◎译  名 托尔金 / A Light in the Darkness / J.R.R. Tolkien
◎片  名 Tolkien
◎年  代 2019
◎产  地 美国
◎类  别 剧情 / 列传
◎语  言 英语
◎上映日期 2019-05-03(英国) / 2019-05-10(美国)
◎IMDb评分  7.0/10 from 5529 users
◎IMDb链接  http://www.imdb.com/title/tt3361792
◎豆瓣评分 7.0/10 from 468 users
◎豆瓣链接 https://movie.douban.com/subject/25777634/
◎片  长 112分钟
◎导  演 多姆·卡如库斯基 Dome Karukoski
◎编  剧 大卫·格里森 David Gleeson / 史蒂文·贝雷斯福德 Stephen Beresford
◎主  演 尼古拉斯·霍尔特 Nicholas Hoult
      莉莉·柯林斯 Lily Collins
      吉娜薇·欧瑞丽 Genevieve O'Reilly
      帕姆·费里斯 Pam Ferris
      米米·基恩 Mimi Keene
      科尔姆·米尼 Colm Meaney
      德里克·雅各比 Derek Jacobi
      克雷格·罗伯兹 Craig Roberts
      帕特里克·吉布森 Patrick Gibson
      劳拉·唐奈里 Laura Donnelly
      安东尼·鲍伊 Anthony Boyle
      汤姆·格林-卡尼 Tom Glynn-Carney
      哈利·基尔比 Harry Gilby
      康纳·沃尔夫 Connor Wolf
      大卫·普克里奇 David Puckridge

◎标  签 列传 | 托尔金 | 2019 | 美国 | 记载片 | 剧情 | 英国 | 魔戒
◎简  介  
  芬兰导演多姆·卡如库斯基将执导J·R·R·托尔金列传片。2013年福斯探照灯便预备拍摄此片,定下编剧大卫·格里森、史蒂文·贝雷斯福德。故事聚焦一战爆发前托尔金的友谊、恋爱天下。及若何开启他未来的文学创作之路。
  1. Video
  2. ID                                       : 1
  3. Format                                   : AVC
  4. Format/Info                              : Advanced Video Codec
  5. Format profile                           : [email protected]
  6. Format settings                          : CABAC / 2 Ref Frames
  7. Format settings, CABAC                   : Yes
  8. Format settings, Reference frames        : 2 frames
  9. Codec ID                                 : V_MPEG4/ISO/AVC
  10. Duration                                 : 1 h 51 min
  11. Bit rate mode                            : Variable
  12. Bit rate                                 : 31.3 Mb/s
  13. Width                                    : 1 920 pixels
  14. Height                                   : 1 080 pixels
  15. Display aspect ratio                     : 16:9
  16. Frame rate mode                          : Constant
  17. Frame rate                               : 23.976 (24000/1001) FPS
  18. Color space                              : YUV
  19. Chroma subsampling                       : 4:2:0
  20. Bit depth                                : 8 bits
  21. Scan type                                : Progressive
  22. Bits/(Pixel*Frame)                       : 0.630
  23. Stream size                              : 24.4 GiB (86%)
  24. Title                                    : Tolkien.2019.1080p.BluRay.REMUX.AVC.DTS-HD.MA.5.1-FGT
  25. Language                                 : English
  26. Default                                  : No
  27. Forced                                   : No
  28. Audio #1
  29. ID                                       : 2
  30. Format                                   : DTS XLL
  31. Format/Info                              : Digital Theater Systems
  32. Commercial name                          : DTS-HD Master Audio
  33. Codec ID                                 : A_DTS
  34. Duration                                 : 1 h 51 min
  35. Bit rate mode                            : Variable
  36. Bit rate                                 : 3 437 kb/s
  37. Channel(s)                               : 6 channels
  38. Channel layout                           : C L R Ls Rs LFE
  39. Sampling rate                            : 48.0 kHz
  40. Frame rate                               : 93.750 FPS (512 SPF)
  41. Bit depth                                : 24 bits
  42. Compression mode                         : Lossless
  43. Stream size                              : 2.68 GiB (9%)
  44. Title                                    : Tolkien.2019.1080p.BluRay.REMUX.AVC.DTS-HD.MA.5.1-FGT
  45. Language                                 : English
  46. Default                                  : Yes
  47. Forced                                   : No
  48. Audio #2
  49. ID                                       : 3
  50. Format                                   : AC-3
  51. Format/Info                              : Audio Coding 3
  52. Commercial name                          : Dolby Digital
  53. Codec ID                                 : A_AC3
  54. Duration                                 : 1 h 51 min
  55. Bit rate mode                            : Constant
  56. Bit rate                                 : 448 kb/s
  57. Channel(s)                               : 6 channels
  58. Channel layout                           : L R C LFE Ls Rs
  59. Sampling rate                            : 48.0 kHz
  60. Frame rate                               : 31.250 FPS (1536 SPF)
  61. Bit depth                                : 16 bits
  62. Compression mode                         : Lossy
  63. Stream size                              : 358 MiB (1%)
  64. Title                                    : Tolkien.2019.1080p.BluRay.REMUX.AVC.DTS-HD.MA.5.1-FGT
  65. Language                                 : English
  66. Service kind                             : Complete Main
  67. Default                                  : No
  68. Forced                                   : No
  69. Audio #3
  70. ID                                       : 4
  71. Format                                   : AC-3
  72. Format/Info                              : Audio Coding 3
  73. Commercial name                          : Dolby Digital
  74. Codec ID                                 : A_AC3
  75. Duration                                 : 1 h 51 min
  76. Bit rate mode                            : Constant
  77. Bit rate                                 : 448 kb/s
  78. Channel(s)                               : 6 channels
  79. Channel layout                           : L R C LFE Ls Rs
  80. Sampling rate                            : 48.0 kHz
  81. Frame rate                               : 31.250 FPS (1536 SPF)
  82. Bit depth                                : 16 bits
  83. Compression mode                         : Lossy
  84. Stream size                              : 358 MiB (1%)
  85. Title                                    : Tolkien.2019.1080p.BluRay.REMUX.AVC.DTS-HD.MA.5.1-FGT
  86. Language                                 : Spanish
  87. Service kind                             : Complete Main
  88. Default                                  : No
  89. Forced                                   : No
  90. Audio #4
  91. ID                                       : 5
  92. Format                                   : AC-3
  93. Format/Info                              : Audio Coding 3
  94. Commercial name                          : Dolby Digital
  95. Codec ID                                 : A_AC3
  96. Duration                                 : 1 h 51 min
  97. Bit rate mode                            : Constant
  98. Bit rate                                 : 448 kb/s
  99. Channel(s)                               : 6 channels
  100. Channel layout                           : L R C LFE Ls Rs
  101. Sampling rate                            : 48.0 kHz
  102. Frame rate                               : 31.250 FPS (1536 SPF)
  103. Bit depth                                : 16 bits
  104. Compression mode                         : Lossy
  105. Stream size                              : 358 MiB (1%)
  106. Title                                    : Tolkien.2019.1080p.BluRay.REMUX.AVC.DTS-HD.MA.5.1-FGT
  107. Language                                 : French
  108. Service kind                             : Complete Main
  109. Default                                  : No
  110. Forced                                   : No
  111. Audio #5
  112. ID                                       : 6
  113. Format                                   : AC-3
  114. Format/Info                              : Audio Coding 3
  115. Commercial name                          : Dolby Digital
  116. Codec ID                                 : A_AC3
  117. Duration                                 : 1 h 51 min
  118. Bit rate mode                            : Constant
  119. Bit rate                                 : 224 kb/s
  120. Channel(s)                               : 2 channels
  121. Channel layout                           : L R
  122. Sampling rate                            : 48.0 kHz
  123. Frame rate                               : 31.250 FPS (1536 SPF)
  124. Bit depth                                : 16 bits
  125. Compression mode                         : Lossy
  126. Stream size                              : 179 MiB (1%)
  127. Title                                    : Tolkien.2019.1080p.BluRay.REMUX.AVC.DTS-HD.MA.5.1-FGT
  128. Language                                 : English
  129. Service kind                             : Complete Main
  130. Default                                  : No
  131. Forced                                   : No
  132. Text #1
  133. ID                                       : 7
  134. Format                                   : UTF-8
  135. Codec ID                                 : S_TEXT/UTF8
  136. Codec ID/Info                            : UTF-8 Plain Text
  137. Duration                                 : 1 h 43 min
  138. Bit rate                                 : 59 b/s
  139. Count of elements                        : 1592
  140. Stream size                              : 45.1 KiB (0%)
  141. Title                                    : English-SRT
  142. Language                                 : English
  143. Default                                  : Yes
  144. Forced                                   : No
  145. Text #2
  146. ID                                       : 8
  147. Format                                   : UTF-8
  148. Codec ID                                 : S_TEXT/UTF8
  149. Codec ID/Info                            : UTF-8 Plain Text
  150. Duration                                 : 1 h 44 min
  151. Bit rate                                 : 67 b/s
  152. Count of elements                        : 1757
  153. Stream size                              : 51.5 KiB (0%)
  154. Title                                    : English-SDH-SRT
  155. Language                                 : English
  156. Default                                  : No
  157. Forced                                   : No
  158. Text #3
  159. ID                                       : 9
  160. Format                                   : PGS
  161. Muxing mode                              : zlib
  162. Codec ID                                 : S_HDMV/PGS
  163. Codec ID/Info                            : Picture based subtitle format used on BDs/HD-DVDs
  164. Duration                                 : 1 h 44 min
  165. Bit rate                                 : 73.3 kb/s
  166. Count of elements                        : 3514
  167. Stream size                              : 54.7 MiB (0%)
  168. Title                                    : English-PGS
  169. Language                                 : English
  170. Default                                  : No
  171. Forced                                   : No
  172. Text #4
  173. ID                                       : 10
  174. Format                                   : PGS
  175. Muxing mode                              : zlib
  176. Codec ID                                 : S_HDMV/PGS
  177. Codec ID/Info                            : Picture based subtitle format used on BDs/HD-DVDs
  178. Duration                                 : 1 h 50 min
  179. Bit rate                                 : 56.3 kb/s
  180. Count of elements                        : 2564
  181. Stream size                              : 44.4 MiB (0%)
  182. Title                                    : Spanish-PGS
  183. Language                                 : Spanish
  184. Default                                  : No
  185. Forced                                   : No
  186. Text #5
  187. ID                                       : 11
  188. Format                                   : PGS
  189. Muxing mode                              : zlib
  190. Codec ID                                 : S_HDMV/PGS
  191. Codec ID/Info                            : Picture based subtitle format used on BDs/HD-DVDs
  192. Duration                                 : 1 h 50 min
  193. Bit rate                                 : 53.3 kb/s
  194. Count of elements                        : 2786
  195. Stream size                              : 42.0 MiB (0%)
  196. Title                                    : French-PGS
  197. Language                                 : French
  198. Default                                  : No
  199. Forced                                   : No
  200. Text #6
  201. ID                                       : 12
  202. Format                                   : PGS
  203. Muxing mode                              : zlib
  204. Codec ID                                 : S_HDMV/PGS
  205. Codec ID/Info                            : Picture based subtitle format used on BDs/HD-DVDs
  206. Duration                                 : 1 h 50 min
  207. Bit rate                                 : 1 636 b/s
  208. Count of elements                        : 66
  209. Stream size                              : 1.29 MiB (0%)
  210. Title                                    : French-PGS
  211. Language                                 : French
  212. Default                                  : No
  213. Forced                                   : No
  214. Text #7
  215. ID                                       : 13
  216. Format                                   : PGS
  217. Muxing mode                              : zlib
  218. Codec ID                                 : S_HDMV/PGS
  219. Codec ID/Info                            : Picture based subtitle format used on BDs/HD-DVDs
  220. Duration                                 : 1 h 50 min
  221. Bit rate                                 : 1 636 b/s
  222. Count of elements                        : 66
  223. Stream size                              : 1.29 MiB (0%)
  224. Title                                    : French-FORCED-PGS
  225. Language                                 : French
  226. Default                                  : No
  227. Forced                                   : No
  228. Text #8
  229. ID                                       : 14
  230. Format                                   : PGS
  231. Muxing mode                              : zlib
  232. Codec ID                                 : S_HDMV/PGS
  233. Codec ID/Info                            : Picture based subtitle format used on BDs/HD-DVDs
  234. Duration                                 : 1 h 45 min
  235. Bit rate                                 : 115 kb/s
  236. Count of elements                        : 4218
  237. Stream size                              : 86.3 MiB (0%)
  238. Title                                    : English-COMMENTARY-PGS
  239. Language                                 : English
  240. Default                                  : No
  241. Forced                                   : No
  242. Text #9
  243. ID                                       : 15
  244. Format                                   : PGS
  245. Muxing mode                              : zlib
  246. Codec ID                                 : S_HDMV/PGS
  247. Codec ID/Info                            : Picture based subtitle format used on BDs/HD-DVDs
  248. Duration                                 : 1 h 51 min
  249. Bit rate                                 : 93.3 kb/s
  250. Count of elements                        : 3484
  251. Stream size                              : 74.4 MiB (0%)
  252. Title                                    : Spanish-COMMENTARY-PGS
  253. Language                                 : Spanish
  254. Default                                  : No
  255. Forced                                   : No
  256. Text #10
  257. ID                                       : 16
  258. Format                                   : PGS
  259. Muxing mode                              : zlib
  260. Codec ID                                 : S_HDMV/PGS
  261. Codec ID/Info                            : Picture based subtitle format used on BDs/HD-DVDs
  262. Duration                                 : 1 h 51 min
  263. Bit rate                                 : 101 kb/s
  264. Count of elements                        : 3483
  265. Stream size                              : 80.8 MiB (0%)
  266. Title                                    : French-COMMENTARY-PGS
  267. Language                                 : French
  268. Default                                  : No
  269. Forced                                   : No
  270. Text #11
  271. ID                                       : 17
  272. Format                                   : PGS
  273. Muxing mode                              : zlib
  274. Codec ID                                 : S_HDMV/PGS
  275. Codec ID/Info                            : Picture based subtitle format used on BDs/HD-DVDs
  276. Duration                                 : 1 h 46 min
  277. Bit rate                                 : 203 b/s
  278. Count of elements                        : 14
  279. Stream size                              : 159 KiB (0%)
  280. Title                                    : Spanish-FORCED-PGS
  281. Language                                 : Spanish
  282. Default                                  : No
  283. Forced                                   : No
  284. Text #12
  285. ID                                       : 18
  286. Format                                   : PGS
  287. Muxing mode                              : zlib
  288. Codec ID                                 : S_HDMV/PGS
  289. Codec ID/Info                            : Picture based subtitle format used on BDs/HD-DVDs
  290. Duration                                 : 1 h 46 min
  291. Bit rate                                 : 203 b/s
  292. Count of elements                        : 14
  293. Stream size                              : 159 KiB (0%)
  294. Title                                    : Spanish-FORCED-PGS
  295. Language                                 : Spanish
  296. Default                                  : No
  297. Forced                                   : No
  298. Menu
  299. 00:00:00.000                             : en:Chapter 01
  300. 00:06:27.136                             : en:Chapter 02
  301. 00:11:09.418                             : en:Chapter 03
  302. 00:15:50.741                             : en:Chapter 04
  303. 00:21:00.884                             : en:Chapter 05
  304. 00:25:53.802                             : en:Chapter 06
  305. 00:34:35.031                             : en:Chapter 07
  306. 00:37:46.264                             : en:Chapter 08
  307. 00:42:01.227                             : en:Chapter 09
  308. 00:44:44.139                             : en:Chapter 10
  309. 00:47:39.773                             : en:Chapter 11
  310. 00:52:04.913                             : en:Chapter 12
  311. 00:57:06.297                             : en:Chapter 13
  312. 00:59:59.804                             : en:Chapter 14
  313. 01:04:39.333                             : en:Chapter 15
  314. 01:08:08.834                             : en:Chapter 16
  315. 01:11:17.398                             : en:Chapter 17
  316. 01:14:29.089                             : en:Chapter 18
  317. 01:19:45.655                             : en:Chapter 19
  318. 01:26:09.539                             : en:Chapter 20
  319. 01:32:11.984                             : en:Chapter 21
  320. 01:35:52.913                             : en:Chapter 22
  321. 01:40:05.290                             : en:Chapter 23
  322. 01:45:06.091                             : en:Chapter 24
复制代码






                                       
                                       

                                       
                                       
                                       




回复

使用道具 举报

懒得打字嘛,点击右侧快捷回复 【右侧内容,后台自定义】
您需要登录后才可以回帖 登录 | 立即加入

本版积分规则

Archiver|小黑屋| 蓝光电影网 |网站地图

Copyright © 2021 Comsenz Inc. Powered by 蓝光电影网

蓝光电影网

本站内容由用户自主分享和转载自互联网,转载目的在于传递更多信息,并不代表本网赞同其观点和对其真实性负责。

如有侵权、违反国家法律政策行为,请联系我们,我们会第一时间及时清除和处理!

举报反馈邮箱:[email protected]

快速回复 返回顶部 返回列表