找回密码

蓝光电影网

查看: 16|回复: 0

[其他] 20世纪少年 最终章 我们的旗帜 20th.Century.Boys.The.Last.Chapter.Our.Flag.2009.1080p.BluRay.x264-LCHD 10.93GB

[复制链接]
蓝光币
515
发表于 2020-9-28 09:35:24 | 显示全部楼层 |阅读模式


◎译  名 20世纪少年 终极章 我们的旗帜/20th Century Boys 3/20th Century Boys: The Last Chapter - Our Flag/20世纪少年 终极章/20世纪少年 第3章/20世纪少年:第三部 我们的旗帜
◎片  名 20世紀少年 最終章 ぼくらの旗
◎年  代 2009
◎产  地 日本
◎类  别 冒险
◎语  言 日语
◎上映日期 2009-08-29
◎IMDb评分  6.6/10 from 1001 users
◎IMDb链接  https://www.imdb.com/title/tt1181919/
◎豆瓣评分 7.0/10 from 3999 users
◎豆瓣链接 https://movie.douban.com/subject/2980437/
◎片  长 156 分钟
◎导  演 堤幸彦 Yukihiko Tsutsumi
◎编  剧 长崎尚志 Takashi Nagasaki / 浦泽直树 Naoki Urasawa
◎主  演 唐泽寿明 Toshiaki Karasawa
       丰川悦司 Etsushi Toyokawa
       平爱梨 Airi Taira
       常盘贵子 Takako Tokiwa
       黑木瞳 Hitomi Kuroki
       香川照之 Teruyuki Kagawa
       宫迫博之 Hiroyuki Miyasako
       石桥莲司 Renji Ishibashi
       木南晴夏 Haruka Kinami
       神木隆之介 Ry?nosuke Kamiki
       藤木直人 Naohito Fujiki
       光石研 Ken Mitsuishi
       福田麻由子 Mayuko Fukuda
       井浦新 ARATA
       竹中直人 Naoto Takenaka
       小日向文世 Fumiyo Kohinata
       生濑胜久 Katsuhisa Namase
       小池荣子 Eiko Koike
       斋藤工 Takumi Sait?
       森山未来 Mirai Moriyama
       佐佐木藏之介 Kuranosuke Sasaki
       山寺宏一 K?ichi Yamadera
       古田新太 Arata Furuta
       片濑那奈 Nana Katase
       冈田义德 Yoshinori Okada
       津田宽治 Kanji Tsuda
       高桥幸宏 Yukihiro Takahashi
       宇梶刚士 Takashi Ukaji
       佐别史郎 Shir? Sano
       谷口贤志 Masashi Taniguchi
       手塚通 Toru Tezuka
       丸山智己 Tomomi Maruyama
       北村总一朗 S?ichir? Kitamura
       藤原薰 Kaoru Fujiwara
       六平直政 Naomasa Musaka
       中村贺津雄 Katsuo Nakamura
       石冢英彦 Hidehiko Ishizuka
       田边修斗 Shuto Tanabe
       Hiro Masuda
       Woody Andrews
       Diamond Yukai
◎标  签 日本 | 日本电影 | 漫画改编 | 20世纪少年 | 科幻 | 浦泽直树 | 堤幸彦 | 日语电影
◎简  介


  2015年,朋友派出的恶魔倾销员遍及天下各大首要城市,致命的病毒就此舒展,全球愈20亿人丧命。在此以后,朋友开辟出的疫苗拯救无数失望的生灵,他再次被人类奉为神明,朋友帝国的统治进一步增强。
  
  与此同时,以义常(香川照之 饰)为首的“贤知一派”和神奈率领的“冰之女王军”与朋友及其地球防卫军接连展开匹敌。在被高墙封锁起来的东京,朋友做出新的预言,“2017年8月20日此日,外星人未来到地球散布更加致命的病毒,全人类城市是以衰亡”。人类危在旦夕,反动军抓紧摆设,阿区(丰川悦司 饰)、贤知(唐泽寿明 饰)、田鸡仔(宮迫博之 饰)、丸夫(石塚英彦 饰)也相继回到这里。关系人类命运的终极决战行将展开……
  
  本片按照浦泽直树同名漫画改编,影片简介中触及的人名均以原著漫画中文版翻译为准。
  1. Video
  2. ID                                       : 1
  3. Format                                   : AVC
  4. Format/Info                              : Advanced Video Codec
  5. Format profile                           : [email protected]
  6. Format settings                          : CABAC / 4 Ref Frames
  7. Format settings, CABAC                   : Yes
  8. Format settings, Reference frames        : 4 frames
  9. Codec ID                                 : V_MPEG4/ISO/AVC
  10. Duration                                 : 2 h 36 min
  11. Bit rate                                 : 8 517 kb/s
  12. Width                                    : 1 920 pixels
  13. Height                                   : 1 080 pixels
  14. Display aspect ratio                     : 16:9
  15. Frame rate mode                          : Constant
  16. Frame rate                               : 23.976 (24000/1001/189150) FPS
  17. Color space                              : YUV
  18. Chroma subsampling                       : 4:2:0
  19. Bit depth                                : 8 bits
  20. Scan type                                : Progressive
  21. Bits/(Pixel*Frame)                       : 0.171
  22. Stream size                              : 9.07 GiB (83%)
  23. Writing library                          : x264 core 93 r1538 bd72d46
  24. Encoding settings                        : cabac=1 / ref=4 / deblock=1:-1:-1 / analyse=0x3:0x113 / me=umh / subme=7 / psy=1 / psy_rd=1.00:0.00 / mixed_ref=1 / me_range=16 / chroma_me=1 / trellis=2 / 8x8dct=1 / cqm=0 / deadzone=21,11 / fast_pskip=1 / chroma_qp_offset=-2 / threads=12 / sliced_threads=0 / nr=0 / decimate=1 / interlaced=0 / constrained_intra=0 / bframes=3 / b_pyramid=2 / b_adapt=2 / b_bias=0 / direct=3 / wpredb=1 / wpredp=2 / keyint=250 / keyint_min=25 / scenecut=40 / intra_refresh=0 / rc_lookahead=40 / rc=2pass / mbtree=1 / bitrate=8517 / ratetol=1.0 / qcomp=0.60 / qpmin=10 / qpmax=51 / qpstep=4 / cplxblur=20.0 / qblur=0.5 / vbv_maxrate=50000 / vbv_bufsize=50000 / ip_ratio=1.40 / aq=1:1.00 / nal_hrd=none
  25. Language                                 : Japanese
  26. Default                                  : Yes
  27. Forced                                   : Yes

  28. Audio
  29. ID                                       : 2
  30. Format                                   : DTS
  31. Format/Info                              : Digital Theater Systems
  32. Codec ID                                 : A_DTS
  33. Duration                                 : 2 h 36 min
  34. Bit rate mode                            : Constant
  35. Bit rate                                 : 1 509 kb/s
  36. Channel(s)                               : 6 channels
  37. Channel layout                           : C L R Ls Rs LFE
  38. Sampling rate                            : 48.0 kHz
  39. Frame rate                               : 93.750 FPS (512 SPF)
  40. Bit depth                                : 16 bits
  41. Compression mode                         : Lossy
  42. Stream size                              : 1.65 GiB (15%)
  43. Language                                 : Japanese
  44. Default                                  : Yes
  45. Forced                                   : Yes

  46. Text
  47. ID                                       : 3
  48. Format                                   : UTF-8
  49. Codec ID                                 : S_TEXT/UTF8
  50. Codec ID/Info                            : UTF-8 Plain Text
  51. Language                                 : English
  52. Default                                  : Yes
  53. Forced                                   : No
复制代码






                                       
                                       

                                       
                                       
                                       




回复

使用道具 举报

懒得打字嘛,点击右侧快捷回复 【右侧内容,后台自定义】
您需要登录后才可以回帖 登录 | 立即加入

本版积分规则

Archiver|小黑屋| 蓝光电影网 |网站地图

Copyright © 2021 Comsenz Inc. Powered by 蓝光电影网

蓝光电影网

本站内容由用户自主分享和转载自互联网,转载目的在于传递更多信息,并不代表本网赞同其观点和对其真实性负责。

如有侵权、违反国家法律政策行为,请联系我们,我们会第一时间及时清除和处理!

举报反馈邮箱:[email protected]

快速回复 返回顶部 返回列表