找回密码

蓝光电影网

查看: 24|回复: 0

[剧情] 双套结杀手 The.Clovehitch.Killer.2018.1080p.BluRay.REMUX.AVC.DTS-HD.MA.5.1-FGT 15.81GB

[复制链接]
蓝光币
515
发表于 2019-8-5 12:04:25 | 显示全部楼层 |阅读模式


◎译  名 双套结杀手 / Clovehitch
◎片  名 The Clovehitch Killer
◎年  代 2018
◎产  地 美国
◎类  别 剧情 / 悬疑 / 惊悚
◎语  言 英语
◎上映日期 2018-11-16(美国)
◎IMDb评分  6.5/10 from 10037 users
◎IMDb链接  http://www.imdb.com/title/tt6269368
◎豆瓣评分 6.2/10 from 1281 users
◎豆瓣链接 https://movie.douban.com/subject/30143859/
◎片  长 109分钟
◎导  演 邓肯·斯基尔斯 Duncan Skiles
◎编  剧 克里斯托弗·D·福特 Christopher D. Ford
◎主  演 查理·普拉默 Charlie Plummer
      迪伦·麦克德莫特 Dylan McDermott
      萨曼莎·玛西丝 Samantha Mathis
      麦迪逊·贝蒂 Madisen Beaty
      布伦娜·谢尔曼 Brenna Sherman
      兰斯·钱泰尔斯-韦茨 Lance Chantiles-Wertz

◎标  签 悬疑 | 犯罪 | 惊悚 | 美国 | 2018 | 剧情 | 人性 | 可骇
◎简  介  
  泰瑞是个善良的好孺子军,虽然家境贫困,但他有个暖和的大家庭。他意外发现爸爸收藏着一些不胜入目标色情照,这让他起头思疑爸爸能够会是从未被逮到的「双套结杀人魔」。泰勒与热衷双套结杀人魔业绩的好友凯西,决议找出他父亲身上的真相以庇护他的家庭。
  1. Video
  2. ID                                       : 1
  3. Format                                   : AVC
  4. Format/Info                              : Advanced Video Codec
  5. Format profile                           : [email protected]
  6. Format settings                          : CABAC / 4 Ref Frames
  7. Format settings, CABAC                   : Yes
  8. Format settings, Reference frames        : 4 frames
  9. Codec ID                                 : V_MPEG4/ISO/AVC
  10. Duration                                 : 1 h 49 min
  11. Bit rate mode                            : Variable
  12. Bit rate                                 : 18.9 Mb/s
  13. Maximum bit rate                         : 38.0 Mb/s
  14. Width                                    : 1 920 pixels
  15. Height                                   : 1 080 pixels
  16. Display aspect ratio                     : 16:9
  17. Frame rate mode                          : Constant
  18. Frame rate                               : 23.976 (24000/1001) FPS
  19. Color space                              : YUV
  20. Chroma subsampling                       : 4:2:0
  21. Bit depth                                : 8 bits
  22. Scan type                                : Progressive
  23. Bits/(Pixel*Frame)                       : 0.381
  24. Stream size                              : 14.5 GiB (92%)
  25. Title                                    : The.Clovehitch.Killer.2018.1080p.BluRay.REMUX.AVC.DTS-HD.MA.5.1-FGT
  26. Language                                 : English
  27. Default                                  : No
  28. Forced                                   : No
  29. Audio
  30. ID                                       : 2
  31. Format                                   : DTS XLL
  32. Format/Info                              : Digital Theater Systems
  33. Commercial name                          : DTS-HD Master Audio
  34. Codec ID                                 : A_DTS
  35. Duration                                 : 1 h 49 min
  36. Bit rate mode                            : Variable
  37. Bit rate                                 : 1 686 kb/s
  38. Channel(s)                               : 6 channels
  39. Channel layout                           : C L R Ls Rs LFE
  40. Sampling rate                            : 48.0 kHz
  41. Frame rate                               : 93.750 FPS (512 SPF)
  42. Bit depth                                : 16 bits
  43. Compression mode                         : Lossless
  44. Stream size                              : 1.29 GiB (8%)
  45. Title                                    : The.Clovehitch.Killer.2018.1080p.BluRay.REMUX.AVC.DTS-HD.MA.5.1-FGT
  46. Language                                 : English
  47. Default                                  : Yes
  48. Forced                                   : No
  49. Menu
  50. 00:00:00.000                             : en:Chapter 01
  51. 00:08:08.196                             : en:Chapter 02
  52. 00:16:33.909                             : en:Chapter 03
  53. 00:26:08.233                             : en:Chapter 04
  54. 00:35:17.740                             : en:Chapter 05
  55. 00:43:11.046                             : en:Chapter 06
  56. 00:51:31.046                             : en:Chapter 07
  57. 00:59:59.971                             : en:Chapter 08
  58. 01:10:03.532                             : en:Chapter 09
  59. 01:15:41.328                             : en:Chapter 10
  60. 01:23:24.374                             : en:Chapter 11
  61. 01:37:10.157                             : en:Chapter 12
复制代码






                                       
                                       

                                       
                                       
                                       




回复

使用道具 举报

懒得打字嘛,点击右侧快捷回复 【右侧内容,后台自定义】
您需要登录后才可以回帖 登录 | 立即加入

本版积分规则

Archiver|小黑屋| 蓝光电影网 |网站地图

Copyright © 2021 Comsenz Inc. Powered by 蓝光电影网

蓝光电影网

本站内容由用户自主分享和转载自互联网,转载目的在于传递更多信息,并不代表本网赞同其观点和对其真实性负责。

如有侵权、违反国家法律政策行为,请联系我们,我们会第一时间及时清除和处理!

举报反馈邮箱:[email protected]

快速回复 返回顶部 返回列表