找回密码

蓝光电影网

查看: 18|回复: 0

[剧情] 真相 Awake.2019.1080p.BluRay.REMUX.AVC.DTS-HD.MA.5.1-FGT 14.78GB

[复制链接]
蓝光币
515
发表于 2019-7-31 19:06:24 | 显示全部楼层 |阅读模式


◎译  名 真相 / Awake / 觉悟
◎片  名 Wake Up
◎年  代 2019
◎产  地 美国
◎类  别 剧情 / 惊悚 / 犯罪
◎语  言 英语
◎上映日期 2019-08-16(美国)
◎IMDb链接  http://www.imdb.com/title/tt7584702
◎豆瓣评分 0/10 from 0 users
◎豆瓣链接 https://movie.douban.com/subject/30218196/
◎片  长 92分钟
◎导  演 亚历山大 Aleksandr Chernyaev / Fedor Lyass
◎编  剧 Elana Zeltser
◎主  演 乔纳森·莱斯·梅耶斯 Jonathan Rhys Meyers
      弗朗西斯卡·伊斯特伍德 Francesca Eastwood

◎标  签 美国电影 | 犯罪 | 惊悚 | 悬疑 | 剧情 | 乔纳森·莱斯·梅耶斯
◎简  介  
  故事报告一个在医院醒来的男人(梅耶斯饰)发现自己失忆,而此时警方却称他就是被通缉的连环杀人犯。在他的护士(伊斯特伍德饰)的帮助下,他逃离了医院,二人一路找寻线索证实明净。
  1. Video
  2. ID                                       : 1
  3. Format                                   : AVC
  4. Format/Info                              : Advanced Video Codec
  5. Format profile                           : [email protected]
  6. Format settings                          : CABAC / 4 Ref Frames
  7. Format settings, CABAC                   : Yes
  8. Format settings, Reference frames        : 4 frames
  9. Codec ID                                 : V_MPEG4/ISO/AVC
  10. Duration                                 : 1 h 32 min
  11. Bit rate mode                            : Constant
  12. Bit rate                                 : 22.0 Mb/s
  13. Width                                    : 1 920 pixels
  14. Height                                   : 1 080 pixels
  15. Display aspect ratio                     : 16:9
  16. Frame rate mode                          : Constant
  17. Frame rate                               : 24.000 FPS
  18. Standard                                 : NTSC
  19. Color space                              : YUV
  20. Chroma subsampling                       : 4:2:0
  21. Bit depth                                : 8 bits
  22. Scan type                                : Progressive
  23. Bits/(Pixel*Frame)                       : 0.442
  24. Stream size                              : 13.6 GiB (92%)
  25. Title                                    : Awake.2019.1080p.BluRay.REMUX.AVC.DTS-HD.MA.5.1-FGT
  26. Language                                 : English
  27. Default                                  : No
  28. Forced                                   : No
  29. Color range                              : Limited
  30. Color primaries                          : BT.709
  31. Transfer characteristics                 : BT.709
  32. Matrix coefficients                      : BT.709
  33. Audio
  34. ID                                       : 2
  35. Format                                   : DTS XLL
  36. Format/Info                              : Digital Theater Systems
  37. Commercial name                          : DTS-HD Master Audio
  38. Codec ID                                 : A_DTS
  39. Duration                                 : 1 h 32 min
  40. Bit rate mode                            : Variable
  41. Bit rate                                 : 1 864 kb/s
  42. Channel(s)                               : 6 channels
  43. Channel layout                           : C L R Ls Rs LFE
  44. Sampling rate                            : 48.0 kHz
  45. Frame rate                               : 93.750 FPS (512 SPF)
  46. Bit depth                                : 16 bits
  47. Compression mode                         : Lossless
  48. Stream size                              : 1.20 GiB (8%)
  49. Title                                    : Awake.2019.1080p.BluRay.REMUX.AVC.DTS-HD.MA.5.1-FGT
  50. Language                                 : English
  51. Default                                  : Yes
  52. Forced                                   : No
  53. Menu
  54. 00:00:00.000                             : en:Chapter 01
  55. 00:07:58.458                             : en:Chapter 02
  56. 00:16:02.541                             : en:Chapter 03
  57. 00:24:00.250                             : en:Chapter 04
  58. 00:31:59.708                             : en:Chapter 05
  59. 00:39:53.416                             : en:Chapter 06
  60. 00:48:00.333                             : en:Chapter 07
  61. 00:55:55.333                             : en:Chapter 08
  62. 01:04:00.041                             : en:Chapter 09
  63. 01:12:02.291                             : en:Chapter 10
  64. 01:19:35.083                             : en:Chapter 11
  65. 01:27:26.291                             : en:Chapter 12
复制代码






                                       
                                       

                                       
                                       
                                       




回复

使用道具 举报

懒得打字嘛,点击右侧快捷回复 【右侧内容,后台自定义】
您需要登录后才可以回帖 登录 | 立即加入

本版积分规则

Archiver|小黑屋| 蓝光电影网 |网站地图

Copyright © 2021 Comsenz Inc. Powered by 蓝光电影网

蓝光电影网

本站内容由用户自主分享和转载自互联网,转载目的在于传递更多信息,并不代表本网赞同其观点和对其真实性负责。

如有侵权、违反国家法律政策行为,请联系我们,我们会第一时间及时清除和处理!

举报反馈邮箱:[email protected]

快速回复 返回顶部 返回列表