找回密码

蓝光电影网

查看: 22|回复: 0

[动作] 海贼王剧场版Z/海贼王剧场版:Z One.Piece.Film.Z.2012.1080p.BluRay.x264-PFa 5.45GB

[复制链接]
蓝光币
515
发表于 2019-8-18 03:15:10 | 显示全部楼层 |阅读模式


◎译  名 海贼王戏院版Z / 海贼王戏院版:Z(港) / 海贼王电影版2012:最强之敌Z / 航海王电影:Z(台)
◎片  名 ONE PIECE FILM Z
◎年  代 2012
◎产  地 日本
◎类  别 行动 / 动画 / 冒险
◎语  言 日语
◎上映日期 2012-12-15(日本) / 2013-02-14(香港)
◎IMDb评分  7.9/10 from 5087 users
◎IMDb链接  http://www.imdb.com/title/tt2375379
◎豆瓣评分 8.6/10 from 22290 users
◎豆瓣链接 https://movie.douban.com/subject/10467125/
◎片  长 108分钟
◎导  演 长峰达也 Tatsuya Nagamine
◎编  剧 铃木收 Osamu Suzuki / 尾田荣一郎 Eiichiro Oda
◎主  演 田中真弓 Mayumi Tanaka
       中井和哉 Kazuya Nakai
       冈村明美 Akemi Okamura
       山口胜平 Kappei Yamaguchi
       平田广明 Hiroaki Hirata
       大谷育江 Ikue Ootani
       山口由里子 Yuriko Yamaguchi
       矢尾一树 Kazuki Yao
       长岛雄一 Y?ichi Nagashima
       石森达幸 Ishimori Takkou
       中博史 Hiroshi Naka
       立木文彦 Fumihiko Tachiki
       石冢运升 Unsh? Ishizuka
       松岛美野里 Minori Matsushima
       土井美加 Mika Doi
       永野广一 K?ichi Nagano
       广濑正志 Masashi Hirose
       渡边久美子 Kumiko Watanabe
       鹿野优以 Yui Kano
       高木俊
       花田光 Hikaru Hanada
       田中一成
       福原耕平 K?hei Fukuhara
       田中大文
       藤本隆弘 Fujimoto Takahiro
       织田优成 Oda Yuusei
       三浦祥朗 Hiroaki Miura
       赤羽根健治 Kenji Akabane
       川原庆久 Yoshihisa Kawahara
       宫崎宽务 Miyazaki Hiromu
       金本凉辅 Kanemoto Ryousuke
       松原大典 Matsubara Daisuke
       荒井聪太 Souta Arai
       阿座上洋平
       小川慎太郎
       酒井凛太郎
       新井良平 Ryouhei Arai
       井野优
       前田邦宏
       藤井雪代 Yukiyo Fujii
       金子有希 Yuki Kaneko
       金香里
       大空直美 Naomi Ohzora
       一木千洋
       一之濑彩
       松井桃子
       镰田梢
       赤塚弘卓
       岩永彻也 Tetsuya Iwanaga
       大杉友兼
       铃木真仁 Masami Suzuki
       子安武人 Takehito Koyasu
       加藤绫子
       佐佐木希 Nozomi Sasaki
       田中美保 Tanaka Miho
       西内玛利亚 Mariya Nishiuchi
       筱原凉子 Ryoko Shinohara
       香川照之 Teruyuki Kagawa
       大塚芳忠 H?ch? ?tsuka

◎标  签 海贼王 | 戏院版 | 日本 | 动漫 | 热血 | 2012 | 冒险 | 动人
◎简  介  
  在樱花烂缦的季节里,无忧无虑的凉帽海贼团纵情享用欢畅时光。途中乔巴救上了一个魁梧健硕的家伙,最引人注视标是他的右腕装配了用海楼石做成的机械手段,凡是触碰过手段的人均才能尽失。本来这人即是已经培育出无数优异门生的原水兵上将Z(大冢芳忠 配音)。苏醒后的Z得知路飞(田中真弓 配音)等人的身份后交恶构怨,与随后赶来的部属艾伊(筱原凉子 配音)和宾兹(香川照之 配音)对凉帽海贼团予以残暴无情的重创。本来Z因某件往事而对海贼极端憎恨,此时他正酝酿一项可骇计划,势要率领“NEO水兵”将新天下的海贼一举消灭。他的行动引发水兵本部的忌惮,而惨败的路飞等人也将向这个史无前例的仇敌展开新的应战……
  本片为同名漫画改编的戏院版动画,原著作者尾田荣一郎担任建造总批示,艾薇儿演唱主题歌《How You Remind Me》和《Bad Reputation》。
◎获奖情况  
  第36届日本电影学院奖(2013)
  最好动画片(提名)
  1. Video
  2. ID                                       : 1
  3. Format                                   : AVC
  4. Format/Info                              : Advanced Video Codec
  5. Format profile                           : [email protected]
  6. Format settings, CABAC                   : Yes
  7. Format settings, ReFrames                : 4 frames
  8. Codec ID                                 : V_MPEG4/ISO/AVC
  9. Duration                                 : 1h 47mn
  10. Bit rate                                 : 6 324 Kbps
  11. Width                                    : 1 920 pixels
  12. Height                                   : 1 080 pixels
  13. Display aspect ratio                     : 16:9
  14. Frame rate mode                          : Constant
  15. Frame rate                               : 23.976 fps
  16. Color space                              : YUV
  17. Chroma subsampling                       : 4:2:0
  18. Bit depth                                : 8 bits
  19. Scan type                                : Progressive
  20. Bits/(Pixel*Frame)                       : 0.127
  21. Stream size                              : 4.66 GiB (86%)
  22. Writing library                          : x264 core 148 r2638 7599210
  23. Encoding settings                        : cabac=1 / ref=4 / deblock=1:0:0 / analyse=0x3:0x133 / me=umh / subme=8 / psy=1 / psy_rd=1.00:0.00 / mixed_ref=1 / me_range=16 / chroma_me=1 / trellis=1 / 8x8dct=1 / cqm=0 / deadzone=21,11 / fast_pskip=0 / chroma_qp_offset=-2 / threads=12 / lookahead_threads=2 / sliced_threads=0 / nr=0 / decimate=1 / interlaced=0 / bluray_compat=0 / constrained_intra=0 / bframes=3 / b_pyramid=2 / b_adapt=1 / b_bias=0 / direct=1 / weightb=1 / open_gop=0 / weightp=2 / keyint=250 / keyint_min=23 / scenecut=40 / intra_refresh=0 / rc_lookahead=40 / rc=2pass / mbtree=1 / bitrate=6324 / ratetol=1.0 / qcomp=0.60 / qpmin=0 / qpmax=69 / qpstep=4 / cplxblur=20.0 / qblur=0.5 / ip_ratio=1.40 / aq=1:1.00
  24. Language                                 : English
  25. Default                                  : Yes
  26. Forced                                   : No
  27. DURATION                                 : 01:47:59.525000000
  28. NUMBER_OF_FRAMES                         : 155353
  29. NUMBER_OF_BYTES                          : 5119214078
  30. _STATISTICS_WRITING_APP                  : mkvmerge v8.2.0 (\'World of Adventure\') 64bit
  31. _STATISTICS_WRITING_DATE_UTC             : 2015-10-21 13:11:24
  32. _STATISTICS_TAGS                         : BPS DURATION NUMBER_OF_FRAMES NUMBER_OF_BYTES

  33. Audio #1
  34. ID                                       : 2
  35. Format                                   : AC-3
  36. Format/Info                              : Audio Coding 3
  37. Mode extension                           : CM (complete main)
  38. Format settings, Endianness              : Big
  39. Codec ID                                 : A_AC3
  40. Duration                                 : 1h 47mn
  41. Bit rate mode                            : Constant
  42. Bit rate                                 : 448 Kbps
  43. Channel(s)                               : 6 channels
  44. Channel positions                        : Front: L C R, Side: L R, LFE
  45. Sampling rate                            : 48.0 KHz
  46. Compression mode                         : Lossy
  47. Stream size                              : 346 MiB (6%)
  48. Default                                  : Yes
  49. Forced                                   : No

  50. Audio #2
  51. ID                                       : 3
  52. Format                                   : AC-3
  53. Format/Info                              : Audio Coding 3
  54. Mode extension                           : CM (complete main)
  55. Format settings, Endianness              : Big
  56. Codec ID                                 : A_AC3
  57. Duration                                 : 1h 47mn
  58. Bit rate mode                            : Constant
  59. Bit rate                                 : 448 Kbps
  60. Channel(s)                               : 6 channels
  61. Channel positions                        : Front: L C R, Side: L R, LFE
  62. Sampling rate                            : 48.0 KHz
  63. Compression mode                         : Lossy
  64. Stream size                              : 346 MiB (6%)
  65. Default                                  : No
  66. Forced                                   : No

  67. Text
  68. ID                                       : 4
  69. Format                                   : UTF-8
  70. Codec ID                                 : S_TEXT/UTF8
  71. Codec ID/Info                            : UTF-8 Plain Text
  72. Default                                  : Yes
  73. Forced                                   : No
复制代码




                                       
                                       

                                       
                                       
                                       




回复

使用道具 举报

懒得打字嘛,点击右侧快捷回复 【右侧内容,后台自定义】
您需要登录后才可以回帖 登录 | 立即加入

本版积分规则

Archiver|小黑屋| 蓝光电影网 |网站地图

Copyright © 2021 Comsenz Inc. Powered by 蓝光电影网

蓝光电影网

本站内容由用户自主分享和转载自互联网,转载目的在于传递更多信息,并不代表本网赞同其观点和对其真实性负责。

如有侵权、违反国家法律政策行为,请联系我们,我们会第一时间及时清除和处理!

举报反馈邮箱:[email protected]

快速回复 返回顶部 返回列表