找回密码

蓝光电影网

查看: 23|回复: 0

[喜剧] 三生一死 Three.Lives.and.Only.One.Death.1996.FRENCH.1080p.BluRay.x264.DTS-FGT 11.44GB

[复制链接]
蓝光币
515
发表于 2020-11-28 09:20:40 | 显示全部楼层 |阅读模式


◎译  名 三生一死/Three Lives and Only One Death/Trois vies et une seule mort
◎片  名 Trois vies & une seule mort
◎年  代 1996
◎产  地 法国,葡萄牙
◎类  别 笑剧 / 犯罪
◎语  言 法语
◎上映日期 1996-05-15(法国)
◎IMDb评分  6.9/10 from 1191 users
◎IMDb链接  https://www.imdb.com/title/tt0117968/
◎豆瓣评分 7.6/10 from 218 users
◎豆瓣链接 https://movie.douban.com/subject/1439651/
◎片  长 France: 123 分钟
◎导  演 劳尔·鲁伊斯 Raoul Ruiz
◎编  剧 帕斯卡尔·博尼策尔 Pascal Bonitzer / 劳尔·鲁伊斯 Raoul Ruiz
◎主  演 马塞洛·马斯楚安尼 Marcello Mastroianni
       安娜·加列娜 Anna Galiena
       玛丽萨·帕雷德斯 Marisa Paredes
       梅尔维尔·珀波 Melvil Poupaud
       阿丽尔·朵巴丝勒 Arielle Dombasle
       Luc Delhumeau
       莫妮卡·梅莉南 Monique Mélinand
       洛乌·卡斯特尔 Lou Castel
       玛丽莲·坎托 Marilyne Canto
       Pierre Bellemare
       Sma?n
       帕斯卡尔·博尼策尔 Pascal Bonitzer
       洛朗·托坡尔 Roland Topor
       齐雅拉·马斯楚安尼 Chiara Mastroianni
       安德鲁·威尔逊 Andrew Wilson
       费奥多尔·阿特金 Féodor Atkine
       南尼·莫莱蒂 Nanni Moretti
◎标  签 法国 | 拉乌·鲁兹 | 葡萄牙 | Raoul_Ruiz | 法国电影 | 1996 | 剧情 | RaoulRuiz
◎简  介


  跟从着导演观众来到巴黎展开一场布满悬念的旅程。一个具有四个分歧名字与身份的男人引出四段气概悬殊的故事:有关恋爱、愿望、犯罪和时候。
  
  第49届戛纳电影节(1996)  主比赛单元-金棕榈奖(入围)  拉乌·鲁兹
◎获奖情况
  第49届戛纳电影节 ?(1996)
  主比赛单元金棕榈奖(提名) 劳尔·鲁伊斯
  1. Video
  2. ID                                       : 1
  3. Format                                   : AVC
  4. Format/Info                              : Advanced Video Codec
  5. Format profile                           : [email protected]
  6. Format settings                          : CABAC / 4 Ref Frames
  7. Format settings, CABAC                   : Yes
  8. Format settings, Reference frames        : 4 frames
  9. Codec ID                                 : V_MPEG4/ISO/AVC
  10. Duration                                 : 2 h 5 min
  11. Bit rate                                 : 11.5 Mb/s
  12. Width                                    : 1 792 pixels
  13. Height                                   : 1 080 pixels
  14. Display aspect ratio                     : 5:3
  15. Frame rate mode                          : Constant
  16. Frame rate                               : 23.976 (24000/1001/189150) FPS
  17. Color space                              : YUV
  18. Chroma subsampling                       : 4:2:0
  19. Bit depth                                : 8 bits
  20. Scan type                                : Progressive
  21. Bits/(Pixel*Frame)                       : 0.248
  22. Stream size                              : 10.1 GiB (88%)
  23. Title                                    : Three.Lives.and.Only.One.Death.1996.FRENCH.1080p.BluRay.x264.DTS-FGT
  24. Writing library                          : x264 core 148 r2748 97eaef2
  25. Encoding settings                        : cabac=1 / ref=4 / deblock=1:-2:-2 / analyse=0x3:0x113 / me=umh / subme=9 / psy=1 / psy_rd=1.00:0.15 / mixed_ref=1 / me_range=16 / chroma_me=1 / trellis=2 / 8x8dct=1 / cqm=0 / deadzone=21,11 / fast_pskip=1 / chroma_qp_offset=-3 / threads=24 / lookahead_threads=3 / sliced_threads=0 / nr=0 / decimate=1 / interlaced=0 / bluray_compat=0 / constrained_intra=0 / bframes=3 / b_pyramid=2 / b_adapt=1 / b_bias=0 / direct=3 / weightb=1 / open_gop=0 / weightp=2 / keyint=250 / keyint_min=25 / scenecut=40 / intra_refresh=0 / rc_lookahead=50 / rc=2pass / mbtree=1 / bitrate=11500 / ratetol=1.0 / qcomp=0.60 / qpmin=0 / qpmax=69 / qpstep=4 / cplxblur=20.0 / qblur=0.5 / vbv_maxrate=31250 / vbv_bufsize=31250 / nal_hrd=none / filler=0 / ip_ratio=1.40 / aq=1:1.00
  26. Language                                 : French
  27. Default                                  : Yes
  28. Forced                                   : No
  29. Audio
  30. ID                                       : 2
  31. Format                                   : DTS
  32. Format/Info                              : Digital Theater Systems
  33. Codec ID                                 : A_DTS
  34. Duration                                 : 2 h 5 min
  35. Bit rate mode                            : Constant
  36. Bit rate                                 : 1 509 kb/s
  37. Channel(s)                               : 6 channels
  38. Channel layout                           : C L R Ls Rs LFE
  39. Sampling rate                            : 48.0 kHz
  40. Frame rate                               : 93.750 FPS (512 SPF)
  41. Bit depth                                : 24 bits
  42. Compression mode                         : Lossy
  43. Stream size                              : 1.33 GiB (12%)
  44. Title                                    : Three.Lives.and.Only.One.Death.1996.FRENCH.1080p.BluRay.x264.DTS-FGT
  45. Language                                 : French
  46. Default                                  : Yes
  47. Forced                                   : No
  48. Text
  49. ID                                       : 3
  50. Format                                   : UTF-8
  51. Codec ID                                 : S_TEXT/UTF8
  52. Codec ID/Info                            : UTF-8 Plain Text
  53. Duration                                 : 2 h 5 min
  54. Bit rate                                 : 53 b/s
  55. Count of elements                        : 1808
  56. Stream size                              : 48.7 KiB (0%)
  57. Language                                 : English
  58. Default                                  : Yes
  59. Forced                                   : No
  60. Menu
  61. 00:00:00.000                             : en:Chapter 1
  62. 00:16:48.633                             : en:Chapter 2
  63. 00:31:26.426                             : en:Chapter 3
  64. 00:45:48.621                             : en:Chapter 4
  65. 00:56:33.640                             : en:Chapter 5
  66. 01:13:12.388                             : en:Chapter 6
  67. 01:27:01.174                             : en:Chapter 7
  68. 01:44:05.614                             : en:Chapter 8
  69. 01:53:42.065                             : en:Chapter 9
复制代码






                                       
                                       

                                       
                                       
                                       




回复

使用道具 举报

懒得打字嘛,点击右侧快捷回复 【右侧内容,后台自定义】
您需要登录后才可以回帖 登录 | 立即加入

本版积分规则

Archiver|小黑屋| 蓝光电影网 |网站地图

Copyright © 2021 Comsenz Inc. Powered by 蓝光电影网

蓝光电影网

本站内容由用户自主分享和转载自互联网,转载目的在于传递更多信息,并不代表本网赞同其观点和对其真实性负责。

如有侵权、违反国家法律政策行为,请联系我们,我们会第一时间及时清除和处理!

举报反馈邮箱:[email protected]

快速回复 返回顶部 返回列表