找回密码

蓝光电影网

查看: 18|回复: 0

[喜剧] 难道不浪漫/好不浪漫 Isnt.It.Romantic.2019.1080p.BluRay.REMUX.AVC.DTS-HD.MA.5.1-FGT 25.46GB

[复制链接]
蓝光币
509
发表于 2019-5-22 18:56:21 | 显示全部楼层 |阅读模式




◎译  名 难道不浪漫 / 好不浪漫(台) / 这不浪漫吗
◎片  名 Isn't It Romantic
◎年  代 2019
◎产  地 美国
◎类  别 笑剧 / 恋爱 / 奇异
◎语  言 英语
◎上映日期 2019-02-14(美国)
◎IMDb评分  5.9/10 from 37574 users
◎IMDb链接  http://www.imdb.com/title/tt2452244
◎豆瓣评分 5.9/10 from 3543 users
◎豆瓣链接 https://movie.douban.com/subject/27002812/
◎片  长 88分钟
◎导  演 托德·施特劳斯-斯古尔森 Todd Strauss-Schulson
◎编  剧 埃里·卡迪约 Erin Cardillo / 达纳·福克斯 Dana Fox / 凯瑟琳·西尔伯曼 Katie Silberman
◎主  演 蕾蓓尔·威尔森 Rebel Wilson
      利亚姆·海姆斯沃斯 Liam Hemsworth
      亚当·德维尼 Adam DeVine
      佩丽冉卡·曹帕拉 Priyanka Chopra
      布兰登·斯科特·琼斯 Brandon Scott Jones
      贝蒂·吉尔平 Betty Gilpin
      汤姆·艾利斯 Tom Ellis
      珍妮弗·桑德斯 Jennifer Saunders
      费斯·洛根 Faith Logan
      尤金娜·库日敏娜 Eugenia Kuzmina
      雪莉·罗德里格斯 Shyrley Rodriguez
      杰奎琳·霍尽力克 Jacqueline Honulik
      埃斯特班·贝尼托 Esteban Benito
      桃乐丝·麦卡锡 Doris McCarthy
      卢西亚诺·阿库尼亚 Luciano Acuna Jr.
      马米·科西科 Marmee Cosico

◎标  签 笑剧 | 恋爱 | 美国 | 搞笑 | 2019 | 奇异 | Netflix | 正能量
◎简  介  
  托德·施特劳斯-斯古尔森将执导新线影业新片[难道不浪漫](Isn’t It Romantic,暂译)。影片由蕾蓓尔·威尔森主演,报告一位刻薄女孩的普通生活一夜之间变作了布满浪漫的恋爱笑剧,她也由此成为朋友们的话题中心。斯古尔森以拍摄笑剧见长,2015年他导演的[幸存的女孩]曾入围多伦多电影节。
  1. Video
  2. ID                                       : 1
  3. Format                                   : AVC
  4. Format/Info                              : Advanced Video Codec
  5. Format profile                           : [email protected]
  6. Format settings                          : CABAC / 4 Ref Frames
  7. Format settings, CABAC                   : Yes
  8. Format settings, ReFrames                : 4 frames
  9. Codec ID                                 : V_MPEG4/ISO/AVC
  10. Duration                                 : 1 h 28 min
  11. Bit rate mode                            : Variable
  12. Bit rate                                 : 35.6 Mb/s
  13. Maximum bit rate                         : 38.0 Mb/s
  14. Width                                    : 1 920 pixels
  15. Height                                   : 1 080 pixels
  16. Display aspect ratio                     : 16:9
  17. Frame rate mode                          : Constant
  18. Frame rate                               : 23.976 (24000/1001) FPS
  19. Color space                              : YUV
  20. Chroma subsampling                       : 4:2:0
  21. Bit depth                                : 8 bits
  22. Scan type                                : Progressive
  23. Bits/(Pixel*Frame)                       : 0.717
  24. Stream size                              : 22.0 GiB (86%)
  25. Title                                    : Isnt.It.Romantic.2019.1080p.BluRay.REMUX.AVC.DTS-HD.MA.5.1-FGT
  26. Language                                 : English
  27. Default                                  : No
  28. Forced                                   : No
  29. Audio #1
  30. ID                                       : 2
  31. Format                                   : DTS XLL
  32. Format/Info                              : Digital Theater Systems
  33. Commercial name                          : DTS-HD Master Audio
  34. Codec ID                                 : A_DTS
  35. Duration                                 : 1 h 28 min
  36. Bit rate mode                            : Variable
  37. Bit rate                                 : 3 685 kb/s
  38. Channel(s)                               : 6 channels
  39. Channel layout                           : C L R Ls Rs LFE
  40. Sampling rate                            : 48.0 kHz
  41. Frame rate                               : 93.750 FPS (512 SPF)
  42. Bit depth                                : 24 bits
  43. Compression mode                         : Lossless
  44. Stream size                              : 2.27 GiB (9%)
  45. Title                                    : Isnt.It.Romantic.2019.1080p.BluRay.REMUX.AVC.DTS-HD.MA.5.1-FGT
  46. Language                                 : English
  47. Default                                  : Yes
  48. Forced                                   : No
  49. Audio #2
  50. ID                                       : 3
  51. Format                                   : AC-3
  52. Format/Info                              : Audio Coding 3
  53. Commercial name                          : Dolby Digital
  54. Codec ID                                 : A_AC3
  55. Duration                                 : 1 h 28 min
  56. Bit rate mode                            : Constant
  57. Bit rate                                 : 640 kb/s
  58. Channel(s)                               : 6 channels
  59. Channel layout                           : L R C LFE Ls Rs
  60. Sampling rate                            : 48.0 kHz
  61. Frame rate                               : 31.250 FPS (1536 SPF)
  62. Bit depth                                : 16 bits
  63. Compression mode                         : Lossy
  64. Stream size                              : 404 MiB (2%)
  65. Title                                    : Isnt.It.Romantic.2019.1080p.BluRay.REMUX.AVC.DTS-HD.MA.5.1-FGT
  66. Language                                 : English
  67. Service kind                             : Complete Main
  68. Default                                  : No
  69. Forced                                   : No
  70. Audio #3
  71. ID                                       : 4
  72. Format                                   : AC-3
  73. Format/Info                              : Audio Coding 3
  74. Commercial name                          : Dolby Digital
  75. Codec ID                                 : A_AC3
  76. Duration                                 : 1 h 28 min
  77. Bit rate mode                            : Constant
  78. Bit rate                                 : 640 kb/s
  79. Channel(s)                               : 6 channels
  80. Channel layout                           : L R C LFE Ls Rs
  81. Sampling rate                            : 48.0 kHz
  82. Frame rate                               : 31.250 FPS (1536 SPF)
  83. Bit depth                                : 16 bits
  84. Compression mode                         : Lossy
  85. Stream size                              : 404 MiB (2%)
  86. Title                                    : Isnt.It.Romantic.2019.1080p.BluRay.REMUX.AVC.DTS-HD.MA.5.1-FGT
  87. Language                                 : French
  88. Service kind                             : Complete Main
  89. Default                                  : No
  90. Forced                                   : No
  91. Audio #4
  92. ID                                       : 5
  93. Format                                   : AC-3
  94. Format/Info                              : Audio Coding 3
  95. Commercial name                          : Dolby Digital
  96. Codec ID                                 : A_AC3
  97. Duration                                 : 1 h 28 min
  98. Bit rate mode                            : Constant
  99. Bit rate                                 : 640 kb/s
  100. Channel(s)                               : 6 channels
  101. Channel layout                           : L R C LFE Ls Rs
  102. Sampling rate                            : 48.0 kHz
  103. Frame rate                               : 31.250 FPS (1536 SPF)
  104. Bit depth                                : 16 bits
  105. Compression mode                         : Lossy
  106. Stream size                              : 404 MiB (2%)
  107. Title                                    : Isnt.It.Romantic.2019.1080p.BluRay.REMUX.AVC.DTS-HD.MA.5.1-FGT
  108. Language                                 : Spanish
  109. Service kind                             : Complete Main
  110. Default                                  : No
  111. Forced                                   : No
  112. Text #1
  113. ID                                       : 6
  114. Format                                   : PGS
  115. Muxing mode                              : zlib
  116. Codec ID                                 : S_HDMV/PGS
  117. Codec ID/Info                            : Picture based subtitle format used on BDs/HD-DVDs
  118. Duration                                 : 1 h 22 min
  119. Bit rate                                 : 58.1 kb/s
  120. Count of elements                        : 3500
  121. Stream size                              : 34.1 MiB (0%)
  122. Title                                    : English-PGS
  123. Language                                 : English
  124. Default                                  : Yes
  125. Forced                                   : No
  126. Text #2
  127. ID                                       : 7
  128. Format                                   : PGS
  129. Muxing mode                              : zlib
  130. Codec ID                                 : S_HDMV/PGS
  131. Codec ID/Info                            : Picture based subtitle format used on BDs/HD-DVDs
  132. Duration                                 : 1 h 22 min
  133. Bit rate                                 : 58.2 kb/s
  134. Count of elements                        : 4045
  135. Stream size                              : 34.2 MiB (0%)
  136. Title                                    : French-PGS
  137. Language                                 : French
  138. Default                                  : No
  139. Forced                                   : No
  140. Text #3
  141. ID                                       : 8
  142. Format                                   : PGS
  143. Muxing mode                              : zlib
  144. Codec ID                                 : S_HDMV/PGS
  145. Codec ID/Info                            : Picture based subtitle format used on BDs/HD-DVDs
  146. Duration                                 : 1 h 22 min
  147. Bit rate                                 : 45.8 kb/s
  148. Count of elements                        : 3112
  149. Stream size                              : 26.9 MiB (0%)
  150. Title                                    : Spanish-PGS
  151. Language                                 : Spanish
  152. Default                                  : No
  153. Forced                                   : No
  154. Text #4
  155. ID                                       : 9
  156. Format                                   : PGS
  157. Muxing mode                              : zlib
  158. Codec ID                                 : S_HDMV/PGS
  159. Codec ID/Info                            : Picture based subtitle format used on BDs/HD-DVDs
  160. Duration                                 : 1 h 9 min
  161. Bit rate                                 : 845 b/s
  162. Count of elements                        : 46
  163. Stream size                              : 431 KiB (0%)
  164. Title                                    : Spanish-FORCED-PGS
  165. Language                                 : Spanish
  166. Default                                  : No
  167. Forced                                   : No
  168. Menu
  169. 00:00:00.000                             : en:Chapter 01
  170. 00:07:52.889                             : en:Chapter 02
  171. 00:14:06.804                             : en:Chapter 03
  172. 00:22:53.663                             : en:Chapter 04
  173. 00:29:43.198                             : en:Chapter 05
  174. 00:35:49.856                             : en:Chapter 06
  175. 00:44:08.103                             : en:Chapter 07
  176. 00:49:59.496                             : en:Chapter 08
  177. 00:56:01.524                             : en:Chapter 09
  178. 01:02:22.572                             : en:Chapter 10
  179. 01:10:16.962                             : en:Chapter 11
  180. 01:14:35.679                             : en:Chapter 12
  181. 01:24:08.918                             : en:Chapter 13
复制代码






                                       
                                       

                                       
                                       
                                       




回复

使用道具 举报

懒得打字嘛,点击右侧快捷回复 【右侧内容,后台自定义】
您需要登录后才可以回帖 登录 | 立即加入

本版积分规则

Archiver|小黑屋| 蓝光电影网 |网站地图

Copyright © 2021 Comsenz Inc. Powered by 蓝光电影网

蓝光电影网

本站内容由用户自主分享和转载自互联网,转载目的在于传递更多信息,并不代表本网赞同其观点和对其真实性负责。

如有侵权、违反国家法律政策行为,请联系我们,我们会第一时间及时清除和处理!

举报反馈邮箱:[email protected]

快速回复 返回顶部 返回列表