找回密码

蓝光电影网

查看: 11|回复: 0

[喜剧] 结婚礼物 Wedding.Present.1936.1080p.BluRay.x264.DTS-FGT 7.43GB

[复制链接]
蓝光币
519
发表于 2020-11-28 09:18:11 | 显示全部楼层 |阅读模式


◎译  名 成婚礼物
◎片  名 Wedding Present
◎年  代 1936
◎产  地 美国
◎类  别 笑剧 / 恋爱
◎语  言 英语
◎上映日期 1936-10-09(美国)
◎IMDb评分  6.3/10 from 502 users
◎IMDb链接  https://www.imdb.com/title/tt0028486/
◎豆瓣评分 /10 from 0 users
◎豆瓣链接 https://movie.douban.com/subject/4042452/
◎片  长 81分钟
◎导  演 理查德·华莱士 Richard Wallace
◎编  剧 约瑟夫·安东尼 Joseph Anthony / 保罗·加利科 Paul Gallico
◎主  演 琼·贝内特 Joan Bennett
       加里·格兰特 Cary Grant
       乔治·班克罗夫特 George Bancroft
       康拉德·纳格尔 Conrad Nagel
       Charles Middleton
       杰克·茂豪尔 Jack Mulhall
       Eddie Phillips
       珀内尔·普拉特 Purnell Pratt
       Dagmar Oakland
       Charles McAvoy
       Frances Morris
       Torben Meyer
       拉斯·鲍威尔 Russ Powell
       Bradley Page
       Richard Powell
       Rex Moore
       Edd Russell
       查尔斯·威廉姆斯 Charles Williams
       Clarence Wilson
       查尔斯·沙利文 Charles Sullivan
       哈利泰勒 Harry Tyler
       查尔兹·歇洛克 Charles Sherlock
       Ernest Shields
       西里尔·环 Cyril Ring
       Marshall Ruth
       Lee Shumway
       小乔治·奥弗曼 George Offerman Jr.
       乔治·米克 George Meeker
       沃尔特·朗 Walter Long
       杰克·奇塔姆 Jack Cheatham
       Harry C. Bradley
       埃迪·博登 Eddie Borden
       Eddie Baker
       查尔斯·阿恩特 Charles Arnt
       吉恩·洛克哈特 Gene Lockhart
       道格拉斯·伍德 Douglas Wood
       爱德华·布罗菲 Edward Brophy
       Mary Forbes
       海尼·康克林 Heinie Conklin
       伊内兹·考特尼 Inez Courtney
       Ralph McCullough
       Charles Meakin
       Otto Hoffman
       Ray Hanson
       哈里·海登 Harry Hayden
       埃迪·凡特思顿 Eddie Fetherston
       Billy Engle
       威廉·德马雷斯特 William Demarest
       Frank Darien
       哈尔·道森 Hal K. Dawson
       George Davis
       Estelle Etterre
       洛伊斯·威尔逊 Lois Wilson
◎标  签 加里·格兰特 | Joan_Bennett | Cary_Grant | 美國 | 美国 | JoanBennett | CaryGrant | 30
◎简  介


  暂无相关剧情先容
  1. Video
  2. ID                                       : 1
  3. Format                                   : AVC
  4. Format/Info                              : Advanced Video Codec
  5. Format profile                           : [email protected]
  6. Format settings                          : CABAC / 4 Ref Frames
  7. Format settings, CABAC                   : Yes
  8. Format settings, Reference frames        : 4 frames
  9. Codec ID                                 : V_MPEG4/ISO/AVC
  10. Duration                                 : 1 h 21 min
  11. Bit rate                                 : 11.5 Mb/s
  12. Width                                    : 1 464 pixels
  13. Height                                   : 1 080 pixels
  14. Display aspect ratio                     : 4:3
  15. Frame rate mode                          : Constant
  16. Frame rate                               : 23.976 (24000/1001/189150) FPS
  17. Color space                              : YUV
  18. Chroma subsampling                       : 4:2:0
  19. Bit depth                                : 8 bits
  20. Scan type                                : Progressive
  21. Bits/(Pixel*Frame)                       : 0.303
  22. Stream size                              : 6.57 GiB (88%)
  23. Title                                    : Wedding.Present.1936.1080p.BluRay.x264.DTS-FGT
  24. Writing library                          : x264 core 148 r2748 97eaef2
  25. Encoding settings                        : cabac=1 / ref=4 / deblock=1:-2:-2 / analyse=0x3:0x113 / me=umh / subme=9 / psy=1 / psy_rd=1.00:0.15 / mixed_ref=1 / me_range=16 / chroma_me=1 / trellis=2 / 8x8dct=1 / cqm=0 / deadzone=21,11 / fast_pskip=1 / chroma_qp_offset=-3 / threads=24 / lookahead_threads=3 / sliced_threads=0 / nr=0 / decimate=1 / interlaced=0 / bluray_compat=0 / constrained_intra=0 / bframes=3 / b_pyramid=2 / b_adapt=1 / b_bias=0 / direct=3 / weightb=1 / open_gop=0 / weightp=2 / keyint=250 / keyint_min=25 / scenecut=40 / intra_refresh=0 / rc_lookahead=50 / rc=2pass / mbtree=1 / bitrate=11500 / ratetol=1.0 / qcomp=0.60 / qpmin=0 / qpmax=69 / qpstep=4 / cplxblur=20.0 / qblur=0.5 / vbv_maxrate=31250 / vbv_bufsize=31250 / nal_hrd=none / filler=0 / ip_ratio=1.40 / aq=1:1.00
  26. Language                                 : English
  27. Default                                  : Yes
  28. Forced                                   : No
  29. Audio
  30. ID                                       : 2
  31. Format                                   : DTS
  32. Format/Info                              : Digital Theater Systems
  33. Codec ID                                 : A_DTS
  34. Duration                                 : 1 h 21 min
  35. Bit rate mode                            : Constant
  36. Bit rate                                 : 1 509 kb/s
  37. Channel(s)                               : 2 channels
  38. Channel layout                           : L R
  39. Sampling rate                            : 48.0 kHz
  40. Frame rate                               : 93.750 FPS (512 SPF)
  41. Bit depth                                : 16 bits
  42. Compression mode                         : Lossy
  43. Stream size                              : 883 MiB (12%)
  44. Title                                    : Wedding.Present.1936.1080p.BluRay.x264.DTS-FGT
  45. Language                                 : English
  46. Default                                  : Yes
  47. Forced                                   : No
  48. Text
  49. ID                                       : 3
  50. Format                                   : UTF-8
  51. Codec ID                                 : S_TEXT/UTF8
  52. Codec ID/Info                            : UTF-8 Plain Text
  53. Duration                                 : 1 h 19 min
  54. Bit rate                                 : 102 b/s
  55. Count of elements                        : 1727
  56. Stream size                              : 59.6 KiB (0%)
  57. Language                                 : English
  58. Default                                  : Yes
  59. Forced                                   : No
  60. Menu
  61. 00:00:00.000                             : en:Chapter 1
  62. 00:11:44.496                             : en:Chapter 2
  63. 00:24:50.990                             : en:Chapter 3
  64. 00:34:35.241                             : en:Chapter 4
  65. 00:43:20.057                             : en:Chapter 5
  66. 00:54:21.968                             : en:Chapter 6
  67. 01:02:57.483                             : en:Chapter 7
  68. 01:11:02.634                             : en:Chapter 8
复制代码






                                       
                                       

                                       
                                       
                                       




回复

使用道具 举报

懒得打字嘛,点击右侧快捷回复 【右侧内容,后台自定义】
您需要登录后才可以回帖 登录 | 立即加入

本版积分规则

Archiver|小黑屋| 蓝光电影网 |网站地图

Copyright © 2021 Comsenz Inc. Powered by 蓝光电影网

蓝光电影网

本站内容由用户自主分享和转载自互联网,转载目的在于传递更多信息,并不代表本网赞同其观点和对其真实性负责。

如有侵权、违反国家法律政策行为,请联系我们,我们会第一时间及时清除和处理!

举报反馈邮箱:[email protected]

快速回复 返回顶部 返回列表