找回密码

蓝光电影网

查看: 7|回复: 0

[动作] 夏娃的时间 Time.of.Eve.2010.READNFO.1080p.BluRay.x264-SADPANDA 5.46GB

[复制链接]
蓝光币
515
发表于 2019-8-18 02:53:05 | 显示全部楼层 |阅读模式


◎译  名 夏娃的时候 / Eve no jikan / Time of Eve / 夏娃的时候 戏院版
◎片  名 イヴの時間
◎年  代 2010
◎产  地 日本
◎类  别 行动 / 恋爱 / 科幻
◎语  言 日语
◎上映日期 2010-03-06(日本)
◎IMDb评分  7.4/10 from 3081 users
◎IMDb链接  http://www.imdb.com/title/tt1715210
◎豆瓣评分 8.5/10 from 4963 users
◎豆瓣链接 https://movie.douban.com/subject/4160477/
◎片  长 106分钟
◎导  演 吉浦康裕 Yasuhiro Yoshiura
◎编  剧 吉浦康裕 Yasuhiro Yoshiura
◎主  演 福山润 Jun Fukuyama
       野岛健儿 Kenji Nojima
       田中理惠 Rie Tanaka
       水谷优子 Y?ko Mizutani
       佐藤利奈 Rina Satou
       ゆかな
       中尾みち雄
       伊藤美纪 Miki It?
       泽城美雪 Miyuki Sawashiro
       清川元梦 Motomu Kiyokawa
       杉田智和 Tomokazu Sugita
       山口由里子 Yuriko Yamaguchi

◎标  签 动画 | 日本 | 科幻 | 日本动画 | 戏院版 | 吉浦康裕 | 动漫 | 2010
◎简  介  
  未来天下,科技高度发财,极端仿真的高智强人形机械人深入到社会的各个方面,成为人类的得力助手。只是狂妄自豪的人类似乎单单将机械人看做办事自己的仆从,而疏忽了他们静静滋生的万千感情。正就读高中的向坂陆夫(福山润 配音)如很多“钻头系”(过度依靠机械人的族群)一样,平常生活全数交由机械人萨美(田中理惠 配音)处置,而且绝对相信机械人三大法例的规定。可是近一段时候发现,萨美经常会去一些指令之外的地方。倍感困惑的陆夫约请好友真崎正树(野岛健儿 配音)按照萨美的数据记录来到了一家名为“夏娃的时候”的咖啡馆,他们惊奇地发现这里聚集了很多决心消撤除标志性光环的机械人,此时的他们与人类无异,而且也有着各自的欢畅和懊恼。
  与此同时,针对人型机械人“自我”状态越发明显的情况,以伦理委员会为首的部分构造起头展开行动……
  1. Video
  2. ID                                       : 1
  3. Format                                   : AVC
  4. Format/Info                              : Advanced Video Codec
  5. Format profile                           : [email protected]
  6. Format settings                          : CABAC / 4 Ref Frames
  7. Format settings, CABAC                   : Yes
  8. Format settings, Reference frames        : 4 frames
  9. Codec ID                                 : V_MPEG4/ISO/AVC
  10. Duration                                 : 1 h 46 min
  11. Bit rate                                 : 5 681 kb/s
  12. Width                                    : 1 920 pixels
  13. Height                                   : 1 080 pixels
  14. Display aspect ratio                     : 16:9
  15. Frame rate mode                          : Constant
  16. Frame rate                               : 23.976 (23976/1000) FPS
  17. Color space                              : YUV
  18. Chroma subsampling                       : 4:2:0
  19. Bit depth                                : 8 bits
  20. Scan type                                : Progressive
  21. Bits/(Pixel*Frame)                       : 0.114
  22. Stream size                              : 4.23 GiB (77%)
  23. Writing library                          : x264 core 148 r2665 a01e339
  24. Encoding settings                        : cabac=1 / ref=4 / deblock=1:1:1 / analyse=0x3:0x113 / me=umh / subme=8 / psy=1 / psy_rd=0.40:0.00 / mixed_ref=1 / me_range=24 / chroma_me=1 / trellis=1 / 8x8dct=1 / cqm=0 / deadzone=21,11 / fast_pskip=1 / chroma_qp_offset=-2 / threads=24 / lookahead_threads=6 / sliced_threads=0 / nr=0 / decimate=1 / interlaced=0 / bluray_compat=0 / constrained_intra=0 / bframes=5 / b_pyramid=2 / b_adapt=2 / b_bias=0 / direct=3 / weightb=1 / open_gop=0 / weightp=2 / keyint=240 / keyint_min=24 / scenecut=40 / intra_refresh=0 / rc_lookahead=50 / rc=2pass / mbtree=1 / bitrate=5681 / ratetol=1.0 / qcomp=0.60 / qpmin=0 / qpmax=69 / qpstep=4 / cplxblur=20.0 / qblur=0.5 / ip_ratio=1.40 / aq=1:0.60
  25. Default                                  : Yes
  26. Forced                                   : No
  27. Audio #1
  28. ID                                       : 2
  29. Format                                   : FLAC
  30. Format/Info                              : Free Lossless Audio Codec
  31. Codec ID                                 : A_FLAC
  32. Duration                                 : 1 h 46 min
  33. Bit rate mode                            : Variable
  34. Bit rate                                 : 464 kb/s
  35. Channel(s)                               : 2 channels
  36. Channel layout                           : L R
  37. Sampling rate                            : 48.0 kHz
  38. Frame rate                               : 11.719 FPS (4096 SPF)
  39. Bit depth                                : 16 bits
  40. Compression mode                         : Lossless
  41. Stream size                              : 353 MiB (6%)
  42. Writing library                          : libFLAC 1.2.1 (UTC 2007-09-17)
  43. Language                                 : Japanese
  44. Default                                  : Yes
  45. Forced                                   : No
  46. Audio #2
  47. ID                                       : 3
  48. Format                                   : FLAC
  49. Format/Info                              : Free Lossless Audio Codec
  50. Codec ID                                 : A_FLAC
  51. Duration                                 : 1 h 46 min
  52. Bit rate mode                            : Variable
  53. Bit rate                                 : 1 190 kb/s
  54. Channel(s)                               : 2 channels
  55. Channel layout                           : L R
  56. Sampling rate                            : 48.0 kHz
  57. Frame rate                               : 11.719 FPS (4096 SPF)
  58. Bit depth                                : 24 bits
  59. Compression mode                         : Lossless
  60. Stream size                              : 906 MiB (16%)
  61. Writing library                          : libFLAC 1.2.1 (UTC 2007-09-17)
  62. Language                                 : English
  63. Default                                  : No
  64. Forced                                   : No
  65. Text #1
  66. ID                                       : 4
  67. Format                                   : UTF-8
  68. Codec ID                                 : S_TEXT/UTF8
  69. Codec ID/Info                            : UTF-8 Plain Text
  70. Duration                                 : 1 h 45 min
  71. Bit rate                                 : 69 b/s
  72. Count of elements                        : 1570
  73. Stream size                              : 54.0 KiB (0%)
  74. Title                                    : Subtitles for Japanese audio
  75. Language                                 : English
  76. Default                                  : Yes
  77. Forced                                   : No
  78. Text #2
  79. ID                                       : 5
  80. Format                                   : UTF-8
  81. Codec ID                                 : S_TEXT/UTF8
  82. Codec ID/Info                            : UTF-8 Plain Text
  83. Duration                                 : 1 h 44 min
  84. Bit rate                                 : 8 b/s
  85. Count of elements                        : 109
  86. Stream size                              : 6.26 KiB (0%)
  87. Title                                    : Forced subtitles for English audio
  88. Language                                 : English
  89. Default                                  : No
  90. Forced                                   : No
  91. Menu
  92. 00:00:00.000                             : en:00:00:00.000
  93. 00:07:20.440                             : en:00:07:20.440
  94. 00:13:00.613                             : en:00:13:00.613
  95. 00:16:01.544                             : en:00:16:01.544
  96. 00:20:46.829                             : en:00:20:46.829
  97. 00:29:13.752                             : en:00:29:13.752
  98. 00:32:10.679                             : en:00:32:10.679
  99. 00:43:33.486                             : en:00:43:33.486
  100. 00:47:01.819                             : en:00:47:01.819
  101. 00:49:34.680                             : en:00:49:34.680
  102. 00:58:13.323                             : en:00:58:13.323
  103. 01:00:18.698                             : en:01:00:18.698
  104. 01:03:10.787                             : en:01:03:10.787
  105. 01:06:03.877                             : en:01:06:03.877
  106. 01:10:07.120                             : en:01:10:07.120
  107. 01:13:48.507                             : en:01:13:48.507
  108. 01:17:28.644                             : en:01:17:28.644
  109. 01:19:04.823                             : en:01:19:04.823
  110. 01:22:29.278                             : en:01:22:29.278
  111. 01:25:44.389                             : en:01:25:44.389
  112. 01:29:51.720                             : en:01:29:51.720
  113. 01:39:00.685                             : en:01:39:00.685
  114. 01:41:13.067                             : en:01:41:13.067
  115. 01:44:44.945                             : en:01:44:44.945
复制代码






                                       
                                       

                                       
                                       
                                       




回复

使用道具 举报

懒得打字嘛,点击右侧快捷回复 【右侧内容,后台自定义】
您需要登录后才可以回帖 登录 | 立即加入

本版积分规则

Archiver|小黑屋| 蓝光电影网 |网站地图

Copyright © 2021 Comsenz Inc. Powered by 蓝光电影网

蓝光电影网

本站内容由用户自主分享和转载自互联网,转载目的在于传递更多信息,并不代表本网赞同其观点和对其真实性负责。

如有侵权、违反国家法律政策行为,请联系我们,我们会第一时间及时清除和处理!

举报反馈邮箱:[email protected]

快速回复 返回顶部 返回列表