找回密码

蓝光电影网

查看: 17|回复: 0

[其他] 复仇者 Murieta.1965.DUBBED.1080p.BluRay.x264-HANDJOB 8.70GB

[复制链接]
蓝光币
519
发表于 2020-9-28 09:13:44 | 显示全部楼层 |阅读模式


◎译  名 复仇者/Murieta/Vendetta
◎片  名 Joaquín Murrieta
◎年  代 1965
◎产  地 美国,西班牙
◎类  别 列传 / 西部
◎语  言 英语
◎上映日期 
◎IMDb评分  5.6/10 from 82 users
◎IMDb链接  https://www.imdb.com/title/tt0058247/
◎豆瓣评分 /10 from 0 users
◎豆瓣链接 https://movie.douban.com/subject/35068577/
◎片  长 107分钟
◎导  演 乔治·雪曼 George Sherman
◎编  剧 詹姆斯·奥哈伦 James O'Hanlon
◎主  演 杰弗里·亨特 Jeffrey Hunter
       黛安娜·洛瑞斯 Diana Lorys
       阿瑟·肯尼迪 Arthur Kennedy
       罗伯托·卡马迭尔 Roberto Camardiel
       Sara Lezana
       弗兰克·布拉尼亚 Frank Bra?a
◎简  介


  暂无相关剧情先容
  1. Video
  2. ID                                       : 1
  3. Format                                   : AVC
  4. Format/Info                              : Advanced Video Codec
  5. Format profile                           : [email protected]
  6. Format settings                          : CABAC / 4 Ref Frames
  7. Format settings, CABAC                   : Yes
  8. Format settings, Reference frames        : 4 frames
  9. Codec ID                                 : V_MPEG4/ISO/AVC
  10. Duration                                 : 1 h 47 min
  11. Bit rate                                 : 11.4 Mb/s
  12. Width                                    : 1 920 pixels
  13. Height                                   : 1 036 pixels
  14. Display aspect ratio                     : 1.85:1
  15. Frame rate mode                          : Constant
  16. Frame rate                               : 24.000 FPS
  17. Color space                              : YUV
  18. Chroma subsampling                       : 4:2:0
  19. Bit depth                                : 8 bits
  20. Scan type                                : Progressive
  21. Bits/(Pixel*Frame)                       : 0.239
  22. Stream size                              : 8.60 GiB (99%)
  23. Writing library                          : x264 core 157 r2935 545de2f
  24. Encoding settings                        : cabac=1 / ref=4 / deblock=1:-3:-3 / analyse=0x3:0x133 / me=umh / subme=10 / psy=1 / psy_rd=1.00:0.00 / mixed_ref=1 / me_range=32 / chroma_me=1 / trellis=2 / 8x8dct=1 / cqm=0 / deadzone=21,11 / fast_pskip=0 / chroma_qp_offset=-2 / threads=32 / lookahead_threads=8 / sliced_threads=0 / nr=0 / decimate=0 / interlaced=0 / bluray_compat=0 / constrained_intra=0 / bframes=16 / b_pyramid=2 / b_adapt=2 / b_bias=0 / direct=3 / weightb=1 / open_gop=0 / weightp=2 / keyint=240 / keyint_min=24 / scenecut=40 / intra_refresh=0 / rc_lookahead=60 / rc=crf / mbtree=0 / crf=19.5 / qcomp=0.60 / qpmin=0 / qpmax=69 / qpstep=4 / vbv_maxrate=62500 / vbv_bufsize=78125 / crf_max=0.0 / nal_hrd=none / filler=0 / ip_ratio=1.40 / pb_ratio=1.30 / aq=2:1.00
  25. Default                                  : Yes
  26. Forced                                   : No
  27. Color range                              : Limited
  28. Color primaries                          : BT.709
  29. Transfer characteristics                 : BT.709
  30. Matrix coefficients                      : BT.709
  31. Audio
  32. ID                                       : 2
  33. Format                                   : AAC LC
  34. Format/Info                              : Advanced Audio Codec Low Complexity
  35. Codec ID                                 : A_AAC-2
  36. Duration                                 : 1 h 47 min
  37. Bit rate                                 : 144 kb/s
  38. Channel(s)                               : 2 channels
  39. Channel layout                           : L R
  40. Sampling rate                            : 48.0 kHz
  41. Frame rate                               : 46.875 FPS (1024 SPF)
  42. Compression mode                         : Lossy
  43. Stream size                              : 109 MiB (1%)
  44. Language                                 : English
  45. Default                                  : Yes
  46. Forced                                   : No
  47. Menu
  48. 00:00:00.000                             : en:Chapter 1
  49. 00:09:14.542                             : en:Chapter 2
  50. 00:17:25.500                             : en:Chapter 3
  51. 00:26:05.000                             : en:Chapter 4
  52. 00:37:09.500                             : en:Chapter 5
  53. 00:42:11.500                             : en:Chapter 6
  54. 00:53:17.000                             : en:Chapter 7
  55. 01:00:24.292                             : en:Chapter 8
  56. 01:11:17.042                             : en:Chapter 9
  57. 01:21:15.292                             : en:Chapter 10
  58. 01:30:14.000                             : en:Chapter 11
  59. 01:38:50.083                             : en:Chapter 12
  60. 01:46:21.083                             : en:Chapter 13
复制代码






                                       
                                       

                                       
                                       
                                       




回复

使用道具 举报

懒得打字嘛,点击右侧快捷回复 【右侧内容,后台自定义】
您需要登录后才可以回帖 登录 | 立即加入

本版积分规则

Archiver|小黑屋| 蓝光电影网 |网站地图

Copyright © 2021 Comsenz Inc. Powered by 蓝光电影网

蓝光电影网

本站内容由用户自主分享和转载自互联网,转载目的在于传递更多信息,并不代表本网赞同其观点和对其真实性负责。

如有侵权、违反国家法律政策行为,请联系我们,我们会第一时间及时清除和处理!

举报反馈邮箱:[email protected]

快速回复 返回顶部 返回列表