找回密码

蓝光电影网

查看: 11|回复: 0

[其他] 狂妄的逃犯/亡命快枪手 The.Ride.to.Hangmans.Tree.1967.1080p.BluRay.x264-HANDJOB 7.34GB

[复制链接]
蓝光币
515
发表于 2020-9-28 09:11:18 | 显示全部楼层 |阅读模式


◎译  名 狂妄的逃犯/亡命快枪手(港)
◎片  名 Ride to Hangman's Tree
◎年  代 1967
◎产  地 美国
◎类  别 西部
◎语  言 英语
◎上映日期 1967
◎IMDb评分  5.3/10 from 164 users
◎IMDb链接  https://www.imdb.com/title/tt0062198/
◎豆瓣评分 /10 from 0 users
◎豆瓣链接 https://movie.douban.com/subject/5057167/
◎片  长 90 分钟
◎导  演 艾伦·拉夫金 Alan Rafkin
◎编  剧 威廉·鲍尔斯 William Bowers / Luci Ward / Jack Natteford
◎主  演 Ed Peck
       约翰·皮卡德 John Pickard
       Stuart Nisbet
       Paul Reed
       杰弗里·塞尔 Jeffrey Sayre
       罗伯特·索雷尔斯 Robert Sorrells
       Harlan Warde
       Robert Yuro
       Len Wayland
       Gene O'Donnell
       Joe Haworth
       卫斯理刘 Wesley Lau
       唐·加洛维 Don Galloway
       理查德·安德森 Richard Anderson
       Bing Russell
       弗朗辛·约克 Francine York
       弗吉尼亚·卡珀斯 Virginia Capers
       Richard H. Cutting
       罗伯特·科恩斯韦特 Robert Cornthwaite
       詹姆斯·法伦蒂洛 James Farentino
       Fabian Dean
       杰克·罗德 Jack Lord
◎标  签 ** | 西部 | 美国 | 华盛顿 | 6.3 | 1967
◎简  介


  暂无相关剧情先容
  1. Video
  2. ID                                       : 1
  3. Format                                   : AVC
  4. Format/Info                              : Advanced Video Codec
  5. Format profile                           : [email protected]
  6. Format settings                          : CABAC / 4 Ref Frames
  7. Format settings, CABAC                   : Yes
  8. Format settings, Reference frames        : 4 frames
  9. Codec ID                                 : V_MPEG4/ISO/AVC
  10. Duration                                 : 1 h 29 min
  11. Bit rate                                 : 11.3 Mb/s
  12. Width                                    : 1 920 pixels
  13. Height                                   : 1 040 pixels
  14. Display aspect ratio                     : 1.85:1
  15. Frame rate mode                          : Constant
  16. Frame rate                               : 23.976 (24000/1001/189150) FPS
  17. Color space                              : YUV
  18. Chroma subsampling                       : 4:2:0
  19. Bit depth                                : 8 bits
  20. Scan type                                : Progressive
  21. Bits/(Pixel*Frame)                       : 0.237
  22. Stream size                              : 7.11 GiB (97%)
  23. Writing library                          : x264 core 157 r2935 545de2f
  24. Encoding settings                        : cabac=1 / ref=4 / deblock=1:-3:-3 / analyse=0x3:0x133 / me=umh / subme=10 / psy=1 / psy_rd=1.00:0.00 / mixed_ref=1 / me_range=32 / chroma_me=1 / trellis=2 / 8x8dct=1 / cqm=0 / deadzone=21,11 / fast_pskip=0 / chroma_qp_offset=-2 / threads=32 / lookahead_threads=8 / sliced_threads=0 / nr=0 / decimate=0 / interlaced=0 / bluray_compat=0 / constrained_intra=0 / bframes=16 / b_pyramid=2 / b_adapt=2 / b_bias=0 / direct=3 / weightb=1 / open_gop=0 / weightp=2 / keyint=240 / keyint_min=24 / scenecut=40 / intra_refresh=0 / rc_lookahead=60 / rc=crf / mbtree=0 / crf=19.8 / qcomp=0.60 / qpmin=0 / qpmax=69 / qpstep=4 / vbv_maxrate=62500 / vbv_bufsize=78125 / crf_max=0.0 / nal_hrd=none / filler=0 / ip_ratio=1.40 / pb_ratio=1.30 / aq=2:1.00
  25. Default                                  : Yes
  26. Forced                                   : No
  27. Color range                              : Limited
  28. Color primaries                          : BT.709
  29. Transfer characteristics                 : BT.709
  30. Matrix coefficients                      : BT.709
  31. Audio
  32. ID                                       : 2
  33. Format                                   : FLAC
  34. Format/Info                              : Free Lossless Audio Codec
  35. Codec ID                                 : A_FLAC
  36. Duration                                 : 1 h 29 min
  37. Bit rate mode                            : Variable
  38. Bit rate                                 : 362 kb/s
  39. Channel(s)                               : 2 channels
  40. Channel layout                           : L R
  41. Sampling rate                            : 48.0 kHz
  42. Frame rate                               : 11.719 FPS (4096 SPF)
  43. Bit depth                                : 16 bits
  44. Compression mode                         : Lossless
  45. Stream size                              : 232 MiB (3%)
  46. Writing library                          : libFLAC 1.3.3 (UTC 2019-08-04)
  47. Language                                 : English
  48. Default                                  : Yes
  49. Forced                                   : No
  50. Text
  51. ID                                       : 3
  52. Format                                   : PGS
  53. Muxing mode                              : zlib
  54. Codec ID                                 : S_HDMV/PGS
  55. Codec ID/Info                            : Picture based subtitle format used on BDs/HD-DVDs
  56. Duration                                 : 1 h 29 min
  57. Bit rate                                 : 20.6 kb/s
  58. Count of elements                        : 2119
  59. Stream size                              : 13.2 MiB (0%)
  60. Language                                 : French
  61. Default                                  : No
  62. Forced                                   : No
  63. Menu
  64. 00:00:00.000                             : en:Chapter 01
  65. 00:07:17.771                             : en:Chapter 02
  66. 00:16:23.024                             : en:Chapter 03
  67. 00:26:31.006                             : en:Chapter 04
  68. 00:38:58.670                             : en:Chapter 05
  69. 00:47:22.089                             : en:Chapter 06
  70. 00:56:52.993                             : en:Chapter 07
  71. 01:08:47.540                             : en:Chapter 08
  72. 01:20:21.066                             : en:Chapter 09
复制代码




                                       
                                       

                                       
                                       
                                       




回复

使用道具 举报

懒得打字嘛,点击右侧快捷回复 【右侧内容,后台自定义】
您需要登录后才可以回帖 登录 | 立即加入

本版积分规则

Archiver|小黑屋| 蓝光电影网 |网站地图

Copyright © 2021 Comsenz Inc. Powered by 蓝光电影网

蓝光电影网

本站内容由用户自主分享和转载自互联网,转载目的在于传递更多信息,并不代表本网赞同其观点和对其真实性负责。

如有侵权、违反国家法律政策行为,请联系我们,我们会第一时间及时清除和处理!

举报反馈邮箱:[email protected]

快速回复 返回顶部 返回列表