找回密码

蓝光电影网

查看: 18|回复: 0

[剧情] 犯罪现场:贝多芬大街上的死鸽子 Dead.Pigeon.On.Beethoven.Street.1973.DC.1080p.BluRay.REMUX.AVC.DTS-HD.MA.2.0-FGT 23.89GB

[复制链接]
蓝光币
515
发表于 2019-7-30 08:58:01 | 显示全部楼层 |阅读模式


◎译  名 犯罪现场:贝多芬大街上的死鸽子 / Dead Pigeon on Beethoven Street
◎片  名 Tote Taube in der Beethovenstra?e
◎年  代 1973
◎产  地 西德
◎类  别 剧情 / 犯罪
◎语  言 英语 / 德语 / 法语
◎上映日期 1973-01-07
◎IMDb评分  6.3/10 from 300 users
◎IMDb链接  http://www.imdb.com/title/tt0069349
◎豆瓣评分 0/10 from 0 users
◎豆瓣链接 https://movie.douban.com/subject/3236337/
◎片  长 102分钟
◎导  演 塞缪尔·富勒 Samuel Fuller
◎编  剧 塞缪尔·富勒 Samuel Fuller / Manfred R. K?hler
◎主  演 Glenn Corbett
      Christa Lang
      安东·迪夫伦 Anton Diffring
      Eric P. Caspar
      William Ray
      Anthony Chinn
      Alexander D'Arcy
      Sieghardt Rupp
      Hans-Christoph Blumenberg
      Armin Halstenberg
      Verena Reichel
      斯蒂芬妮·奥德安 Stéphane Audran
      Wolfgang Weber

◎标  签 美国 | 黑色 | 犯罪 | 塞缪尔·富勒 | SamuelFuller | Samuel_Fuller | 1970s | 德国
◎简  介  
  暂无相关剧情先容
  1. Video
  2. ID                                       : 1
  3. Format                                   : AVC
  4. Format/Info                              : Advanced Video Codec
  5. Format profile                           : [email protected]
  6. Format settings                          : CABAC / 4 Ref Frames
  7. Format settings, CABAC                   : Yes
  8. Format settings, Reference frames        : 4 frames
  9. Codec ID                                 : V_MPEG4/ISO/AVC
  10. Duration                                 : 2 h 7 min
  11. Bit rate mode                            : Variable
  12. Bit rate                                 : 24.9 Mb/s
  13. Maximum bit rate                         : 38.0 Mb/s
  14. Width                                    : 1 920 pixels
  15. Height                                   : 1 080 pixels
  16. Display aspect ratio                     : 16:9
  17. Frame rate mode                          : Constant
  18. Frame rate                               : 23.976 (24000/1001) FPS
  19. Color space                              : YUV
  20. Chroma subsampling                       : 4:2:0
  21. Bit depth                                : 8 bits
  22. Scan type                                : Progressive
  23. Bits/(Pixel*Frame)                       : 0.501
  24. Stream size                              : 22.3 GiB (93%)
  25. Title                                    : Dead.Pigeon.On.Beethoven.Street.1973.DC.1080p.BluRay.REMUX.AVC.DTS-HD.MA.2.0-FGT
  26. Language                                 : English
  27. Default                                  : No
  28. Forced                                   : No
  29. Audio
  30. ID                                       : 2
  31. Format                                   : DTS XLL
  32. Format/Info                              : Digital Theater Systems
  33. Commercial name                          : DTS-HD Master Audio
  34. Codec ID                                 : A_DTS
  35. Duration                                 : 2 h 7 min
  36. Bit rate mode                            : Variable
  37. Bit rate                                 : 1 786 kb/s
  38. Channel(s)                               : 2 channels
  39. Channel layout                           : L R
  40. Sampling rate                            : 48.0 kHz
  41. Frame rate                               : 93.750 FPS (512 SPF)
  42. Bit depth                                : 24 bits
  43. Compression mode                         : Lossless
  44. Stream size                              : 1.60 GiB (7%)
  45. Title                                    : Dead.Pigeon.On.Beethoven.Street.1973.DC.1080p.BluRay.REMUX.AVC.DTS-HD.MA.2.0-FGT
  46. Language                                 : English
  47. Default                                  : Yes
  48. Forced                                   : No
  49. Text
  50. ID                                       : 3
  51. Format                                   : PGS
  52. Muxing mode                              : zlib
  53. Codec ID                                 : S_HDMV/PGS
  54. Codec ID/Info                            : Picture based subtitle format used on BDs/HD-DVDs
  55. Duration                                 : 2 h 7 min
  56. Bit rate                                 : 41.4 kb/s
  57. Count of elements                        : 3570
  58. Stream size                              : 37.7 MiB (0%)
  59. Title                                    : English-PGS
  60. Language                                 : English
  61. Default                                  : Yes
  62. Forced                                   : No
  63. Menu
  64. 00:00:00.000                             : en:Chapter 01
  65. 00:17:35.721                             : en:Chapter 02
  66. 00:37:33.334                             : en:Chapter 03
  67. 00:53:41.301                             : en:Chapter 04
  68. 01:08:19.553                             : en:Chapter 05
  69. 01:24:52.253                             : en:Chapter 06
  70. 01:41:04.391                             : en:Chapter 07
  71. 01:53:44.901                             : en:Chapter 08
复制代码






                                       
                                       

                                       
                                       
                                       




回复

使用道具 举报

懒得打字嘛,点击右侧快捷回复 【右侧内容,后台自定义】
您需要登录后才可以回帖 登录 | 立即加入

本版积分规则

Archiver|小黑屋| 蓝光电影网 |网站地图

Copyright © 2021 Comsenz Inc. Powered by 蓝光电影网

蓝光电影网

本站内容由用户自主分享和转载自互联网,转载目的在于传递更多信息,并不代表本网赞同其观点和对其真实性负责。

如有侵权、违反国家法律政策行为,请联系我们,我们会第一时间及时清除和处理!

举报反馈邮箱:[email protected]

快速回复 返回顶部 返回列表