找回密码

蓝光电影网

查看: 28|回复: 0

[喜剧] 城市猎人 City.Hunter.2018.FRENCH.1080p.BluRay.x264-HANDJOB 7.76GB

[复制链接]
蓝光币
511
发表于 2020-11-28 09:04:09 | 显示全部楼层 |阅读模式


◎译  名 城市猎人/City Hunter/Nicky Larson/Nicky Larson and Cupidon’s Perfume/城市猎人:丘比特香水/城市猎人之丘比特香水
◎片  名 Nicky Larson et le parfum de Cupidon
◎年  代 2018
◎产  地 法国
◎类  别 笑剧 / 行动 / 犯罪
◎语  言 法语
◎上映日期 2018-12-15(比克塞罗勒首映) / 2019-02-06(法国) / 2020-12-11(中国大陆)
◎IMDb评分  6.5/10 from 3301 users
◎IMDb链接  https://www.imdb.com/title/tt8523334/
◎豆瓣评分 7.0/10 from 14098 users
◎豆瓣链接 https://movie.douban.com/subject/30335799/
◎片  长 91分钟
◎导  演 菲利普·拉肖 Philippe Lacheau
◎编  剧 朱利安·阿鲁蒂 Julien Arruti / 皮埃尔·杜丹 Pierre Dudan / 北条司 Tsukasa H?j? / 菲利普·拉肖 Philippe Lacheau / 皮埃尔·拉苏 Pierre Lacheau
◎主  演 菲利普·拉肖 Philippe Lacheau
       艾洛蒂·丰唐 élodie Fontan
       塔雷克·布达里 Tarek Boudali
       朱利安·阿鲁蒂 Julien Arruti
       迪迪埃·布尔东 Didier Bourdon
       帕米拉·安德森 Pamela Anderson
       热拉尔·朱尼奥 Gérard Jugnot
       卡梅尔·古恩福 Kamel Guenfoud
       奥黛丽·拉米 Audrey Lamy
       拉斐尔·佩尔索纳 Rapha?l Personnaz
       丽姆·柯里奇 Reem Kherici
       梅迪·萨东 Medi Sadoun
       多萝泰 Dorothée
       阿尔本·巴贾拉克塔拉贾 Arben Bajraktaraj
       杰若梅·勒·班纳 Jér?me Le Banner
       索菲·穆塞尔 Sophie Mousel
       莉亚·科贝德 Liya Kebede
       艾莉莎·巴奇尔·贝 Elisa Bachir Bey
       安妮-索伦娜·哈特 Anne-Solenne Hatte
       文森特·罗皮恩 Vincent Ropion
       加布里埃·玛丽 Gabrielle Marie
       阿米莉娜·利穆西 Amélina Limousin
       海迪·布奇纳法 Hedi Bouchenafa
◎标  签 笑剧 | 法国 | 搞笑 | 漫画改编 | 行动 | 2019 | 犯罪 | 剧情
◎简  介


  北条司著名漫画《城市猎人》的法国真人版,Nicky Larson(寒羽良)是人称“城市猎人”的私人侦察,他集诙谐、正义、欣赏美男的天性于一身,擅优点理五花八门的辣手使命,深受拜托人相信。阿香与寒羽良为多年同伴,两人看似相爱相杀,实则相互关心,有一天,阿香为两人接来了一单奥秘买卖——庇护一瓶不管谁用了城市魅力大增的香水,神探寒羽良和阿香行将开启新的一次冒险旅程,这一切背后交织着怎样的诡计,又有几多人卷入了这场啼笑皆非的大战中......
  1. Video
  2. ID                                       : 1
  3. Format                                   : AVC
  4. Format/Info                              : Advanced Video Codec
  5. Format profile                           : [email protected]
  6. Format settings                          : CABAC / 5 Ref Frames
  7. Format settings, CABAC                   : Yes
  8. Format settings, Reference frames        : 5 frames
  9. Codec ID                                 : V_MPEG4/ISO/AVC
  10. Duration                                 : 1 h 31 min
  11. Bit rate                                 : 11.5 Mb/s
  12. Width                                    : 1 920 pixels
  13. Height                                   : 804 pixels
  14. Display aspect ratio                     : 2.40:1
  15. Frame rate mode                          : Constant
  16. Frame rate                               : 24.000 FPS
  17. Color space                              : YUV
  18. Chroma subsampling                       : 4:2:0
  19. Bit depth                                : 8 bits
  20. Scan type                                : Progressive
  21. Bits/(Pixel*Frame)                       : 0.311
  22. Stream size                              : 7.35 GiB (95%)
  23. Writing library                          : x264 core 157 r2935 545de2f
  24. Encoding settings                        : cabac=1 / ref=5 / deblock=1:-3:-3 / analyse=0x3:0x133 / me=umh / subme=10 / psy=1 / psy_rd=1.00:0.00 / mixed_ref=1 / me_range=32 / chroma_me=1 / trellis=2 / 8x8dct=1 / cqm=0 / deadzone=21,11 / fast_pskip=0 / chroma_qp_offset=-2 / threads=25 / lookahead_threads=6 / sliced_threads=0 / nr=0 / decimate=0 / interlaced=0 / bluray_compat=0 / constrained_intra=0 / bframes=16 / b_pyramid=2 / b_adapt=2 / b_bias=0 / direct=3 / weightb=1 / open_gop=0 / weightp=2 / keyint=240 / keyint_min=24 / scenecut=40 / intra_refresh=0 / rc_lookahead=60 / rc=crf / mbtree=0 / crf=16.5 / qcomp=0.60 / qpmin=0 / qpmax=69 / qpstep=4 / vbv_maxrate=62500 / vbv_bufsize=78125 / crf_max=0.0 / nal_hrd=none / filler=0 / ip_ratio=1.40 / pb_ratio=1.30 / aq=2:1.00
  25. Language                                 : French
  26. Default                                  : Yes
  27. Forced                                   : No
  28. Color range                              : Limited
  29. Color primaries                          : BT.709
  30. Transfer characteristics                 : BT.709
  31. Matrix coefficients                      : BT.709
  32. Audio
  33. ID                                       : 2
  34. Format                                   : AC-3
  35. Format/Info                              : Audio Coding 3
  36. Commercial name                          : Dolby Digital
  37. Codec ID                                 : A_AC3
  38. Duration                                 : 1 h 31 min
  39. Bit rate mode                            : Constant
  40. Bit rate                                 : 640 kb/s
  41. Channel(s)                               : 6 channels
  42. Channel layout                           : L R C LFE Ls Rs
  43. Sampling rate                            : 48.0 kHz
  44. Frame rate                               : 31.250 FPS (1536 SPF)
  45. Compression mode                         : Lossy
  46. Stream size                              : 418 MiB (5%)
  47. Language                                 : French
  48. Service kind                             : Complete Main
  49. Default                                  : Yes
  50. Forced                                   : No
  51. Text #1
  52. ID                                       : 3
  53. Format                                   : UTF-8
  54. Codec ID                                 : S_TEXT/UTF8
  55. Codec ID/Info                            : UTF-8 Plain Text
  56. Duration                                 : 1 h 27 min
  57. Bit rate                                 : 34 b/s
  58. Count of elements                        : 1115
  59. Stream size                              : 22.0 KiB (0%)
  60. Language                                 : English
  61. Default                                  : Yes
  62. Forced                                   : No
  63. Text #2
  64. ID                                       : 4
  65. Format                                   : UTF-8
  66. Codec ID                                 : S_TEXT/UTF8
  67. Codec ID/Info                            : UTF-8 Plain Text
  68. Duration                                 : 1 h 30 min
  69. Bit rate                                 : 61 b/s
  70. Count of elements                        : 1743
  71. Stream size                              : 40.5 KiB (0%)
  72. Language                                 : French
  73. Default                                  : No
  74. Forced                                   : No
  75. Menu
  76. 00:00:00.000                             : :Chapter 1
  77. 00:06:35.542                             : :Chapter 2
  78. 00:17:02.208                             : :Chapter 3
  79. 00:26:28.625                             : :Chapter 4
  80. 00:33:25.500                             : :Chapter 5
  81. 00:40:12.375                             : :Chapter 6
  82. 00:48:23.833                             : :Chapter 7
  83. 00:53:50.417                             : :Chapter 8
  84. 01:04:50.708                             : :Chapter 9
  85. 01:09:02.375                             : :Chapter 10
  86. 01:20:15.708                             : :Chapter 11
  87. 01:28:28.292                             : :Chapter 12
复制代码





                                       
                                       

                                       
                                       
                                       




回复

使用道具 举报

懒得打字嘛,点击右侧快捷回复 【右侧内容,后台自定义】
您需要登录后才可以回帖 登录 | 立即加入

本版积分规则

Archiver|小黑屋| 蓝光电影网 |网站地图

Copyright © 2021 Comsenz Inc. Powered by 蓝光电影网

蓝光电影网

本站内容由用户自主分享和转载自互联网,转载目的在于传递更多信息,并不代表本网赞同其观点和对其真实性负责。

如有侵权、违反国家法律政策行为,请联系我们,我们会第一时间及时清除和处理!

举报反馈邮箱:[email protected]

快速回复 返回顶部 返回列表