找回密码

蓝光电影网

查看: 18|回复: 0

[动作] 死神剧场版:无人的回忆 Bleach.Movie.Memories.of.Nobody.2006.JAPANESE.1080p.BluRay.x264.DTS-FGT 9.45GB

[复制链接]
蓝光币
515
发表于 2019-8-18 02:51:08 | 显示全部楼层 |阅读模式


◎译  名 死神戏院版:无人的回忆 / Bleach: The Movie - Memories of Nobody / Bleach戏院版 Memories of Nobody / Bleach戏院版 别处的记忆 / Bleach戏院版 无人的记忆 / 死神戏院版
◎片  名 劇場版 BLEACH ブリーチ MEMORIES OF NOBODY
◎年  代 2006
◎产  地 日本
◎类  别 行动 / 动画 / 可骇 / 奇异 / 冒险
◎语  言 日语
◎上映日期 2006-12-16
◎IMDb评分  7.2/10 from 3505 users
◎IMDb链接  http://www.imdb.com/title/tt1105263
◎豆瓣评分 6.9/10 from 5305 users
◎豆瓣链接 https://movie.douban.com/subject/2257094/
◎片  长 87 分钟
◎导  演 阿部记之 Noriyuki Abe
◎编  剧 十川诚志 Masashi Sogo / 久保带人 Tite Kubo
◎主  演 森田成一
       折笠富美子
       斋藤千和
       江原正士
       安元洋贵 Hiroki Yasumoto
       森川智之 Toshiyuki Morikawa
       大塚明夫 Akio ?tsuka
       朴璐美 Romi Pak
       伊藤健太郎 Kentar? It?
       塚田正昭 Masaaki Tsukada
       樱井孝宏 Takahiro Sakurai
       桧山修之 Nobuyuki Hiyama
       中尾隆圣 Ry?sei Nakao
       梁田清之 Kiyoyuki Yanada
       游佐浩二 Koji Yusa
       久川绫 Aya Hisakawa
       钉宫理惠 Rie Kugimiya
       下屋则子 Noriko Shitaya
       川上伦子 Tomoko Kawakami
       置鲇龙太郎 Ry?tar? Okiayu
       立木文彦 Fumihiko Tachiki
       石川英郎 Hideo Ishikawa
       西凛太朗 Rintarou Nishi
       望月久代 Hisayo Mochizuki
       福山润 Jun Fukuyama
       真殿光昭 Mitsuaki Madono
       杉山纪彰 Noriaki Sugiyama
       松冈由贵 Yuki Matsuoka
       本田贵子 Takako Honda
       三木真一郎 Shinichir? Miki

◎标  签 戏院版 | Bleach | 日本 | 动画 | 动漫 | 死神 | 日本动画 | 2006
◎简  介  
  安好平和的空座镇迎来金黄色的秋天,黑崎一护(森田成一 配音)和朽木露琪亚(折笠富美子 配音)刚刚处置完虚反叛的事务,镇车站旁便出现成群的欠魂。它们四周游走,任何驱逐方式都落空效力。正当他们一筹莫展之时,持有斩魂刀“弥勒丸”的死神少女茜雫忽然出现,并成功遣散欠魂。露琪亚对连续串的事务颇感不安,因而回到尸魂界观察。从护廷十三队的口中,一护得知现世和尸魂界中心的断界出现新的空间,而且不竭收缩,致使现世与尸魂界相通。这一切并非自然构成,似乎有人正黑暗操纵着一切,而茜雫正是这起事务的关键……
  本片按照日本漫画家久保带人的同名原著改编,系该动画的第一部戏院版。
  1. Video
  2. ID                                       : 1
  3. Format                                   : AVC
  4. Format/Info                              : Advanced Video Codec
  5. Format profile                           : [email protected]
  6. Format settings, CABAC                   : Yes
  7. Format settings, ReFrames                : 4 frames
  8. Codec ID                                 : V_MPEG4/ISO/AVC
  9. Duration                                 : 1h 32mn
  10. Bit rate                                 : 11.5 Mbps
  11. Width                                    : 1 920 pixels
  12. Height                                   : 1 040 pixels
  13. Display aspect ratio                     : 1.85:1
  14. Frame rate mode                          : Constant
  15. Frame rate                               : 25.000 fps
  16. Color space                              : YUV
  17. Chroma subsampling                       : 4:2:0
  18. Bit depth                                : 8 bits
  19. Scan type                                : Progressive
  20. Bits/(Pixel*Frame)                       : 0.230
  21. Stream size                              : 7.30 GiB (77%)
  22. Writing library                          : x264 core 148 r2694 3b70645
  23. Encoding settings                        : cabac=1 / ref=4 / deblock=1:1:1 / analyse=0x3:0x113 / me=umh / subme=8 / psy=1 / psy_rd=0.40:0.00 / mixed_ref=1 / me_range=16 / chroma_me=1 / trellis=1 / 8x8dct=1 / cqm=0 / deadzone=21,11 / fast_pskip=1 / chroma_qp_offset=-2 / threads=12 / lookahead_threads=3 / sliced_threads=0 / nr=0 / decimate=1 / interlaced=0 / bluray_compat=0 / constrained_intra=0 / bframes=5 / b_pyramid=2 / b_adapt=2 / b_bias=0 / direct=3 / weightb=1 / open_gop=0 / weightp=2 / keyint=250 / keyint_min=25 / scenecut=40 / intra_refresh=0 / rc_lookahead=50 / rc=abr / mbtree=1 / bitrate=11500 / ratetol=1.0 / qcomp=0.60 / qpmin=0 / qpmax=69 / qpstep=4 / ip_ratio=1.40 / aq=1:0.60
  24. Language                                 : English
  25. Default                                  : Yes
  26. Forced                                   : No
  27. Audio #1
  28. ID                                       : 2
  29. Format                                   : DTS
  30. Format/Info                              : Digital Theater Systems
  31. Mode                                     : 16
  32. Format settings, Endianness              : Big
  33. Codec ID                                 : A_DTS
  34. Duration                                 : 1h 32mn
  35. Bit rate mode                            : Constant
  36. Bit rate                                 : 1 509 Kbps
  37. Channel(s)                               : 6 channels
  38. Channel positions                        : Front: L C R, Side: L R, LFE
  39. Sampling rate                            : 48.0 KHz
  40. Frame rate                               : 93.750 fps (512 spf)
  41. Bit depth                                : 16 bits
  42. Compression mode                         : Lossy
  43. Stream size                              : 1 002 MiB (10%)
  44. Language                                 : English
  45. Default                                  : Yes
  46. Forced                                   : No
  47. Audio #2
  48. ID                                       : 3
  49. Format                                   : DTS
  50. Format/Info                              : Digital Theater Systems
  51. Mode                                     : 16
  52. Format settings, Endianness              : Big
  53. Codec ID                                 : A_DTS
  54. Duration                                 : 1h 32mn
  55. Bit rate mode                            : Constant
  56. Bit rate                                 : 1 509 Kbps
  57. Channel(s)                               : 6 channels
  58. Channel positions                        : Front: L C R, Side: L R, LFE
  59. Sampling rate                            : 48.0 KHz
  60. Frame rate                               : 93.750 fps (512 spf)
  61. Bit depth                                : 16 bits
  62. Compression mode                         : Lossy
  63. Stream size                              : 1 002 MiB (10%)
  64. Language                                 : Japanese
  65. Default                                  : No
  66. Forced                                   : No
  67. Text
  68. ID                                       : 4
  69. Format                                   : UTF-8
  70. Codec ID                                 : S_TEXT/UTF8
  71. Codec ID/Info                            : UTF-8 Plain Text
  72. Language                                 : English
  73. Default                                  : Yes
  74. Forced                                   : No
  75. Menu
  76. 00:00:00.000                             : en:Chapter 1
复制代码









                                       
                                       

                                       
                                       
                                       




回复

使用道具 举报

懒得打字嘛,点击右侧快捷回复 【右侧内容,后台自定义】
您需要登录后才可以回帖 登录 | 立即加入

本版积分规则

Archiver|小黑屋| 蓝光电影网 |网站地图

Copyright © 2021 Comsenz Inc. Powered by 蓝光电影网

蓝光电影网

本站内容由用户自主分享和转载自互联网,转载目的在于传递更多信息,并不代表本网赞同其观点和对其真实性负责。

如有侵权、违反国家法律政策行为,请联系我们,我们会第一时间及时清除和处理!

举报反馈邮箱:[email protected]

快速回复 返回顶部 返回列表