找回密码

蓝光电影网

查看: 16|回复: 0

[动作] 哥斯拉2:怪兽之王 Godzilla.King.of.the.Monsters.2019.1080p.BluRay.x264-SPARKS 8.75GB

[复制链接]
蓝光币
519
发表于 2019-8-17 19:36:47 | 显示全部楼层 |阅读模式


◎译  名 哥斯拉2:怪兽之王 / Godzilla 2 / 哥吉拉II怪兽之王(台) / 哥斯拉2 / 哥斯拉2018 / 哥斯拉II: 王者巨兽(港) / 哥斯拉:怪兽之王
◎片  名 Godzilla: King of the Monsters
◎年  代 2019
◎产  地 美国
◎类  别 行动 / 科幻 / 冒险 / 灾难
◎语  言 英语
◎上映日期 2019-05-25(大范围点映) / 2019-05-31(中国大陆/美国)
◎IMDb评分  6.6/10 from 52008 users
◎IMDb链接  http://www.imdb.com/title/tt3741700
◎豆瓣评分 6.4/10 from 140382 users
◎豆瓣链接 https://movie.douban.com/subject/25890017/
◎片  长 132分钟
◎导  演 迈克尔·道赫蒂 Michael Dougherty
◎编  剧 迈克尔·道赫蒂 Michael Dougherty / 扎克·希尔兹 Zach Shields / 麦克思·鲍伦斯坦 Max Borenstein
◎主  演 凯尔·钱德勒 Kyle Chandler
      维拉·法米加 Vera Farmiga
      米莉·波比·布朗 Millie Bobby Brown
      章子怡 Ziyi Zhang
      渡边谦 Ken Watanabe
      布莱德利·惠特福德 Bradley Whitford
      托马斯·米德蒂奇 Thomas Middleditch
      艾莎·辛德斯 Aisha Hinds
      莎莉·霍金斯 Sally Hawkins
      查尔斯·丹斯 Charles Dance
      大卫·斯特雷泽恩 David Strathairn
      小奥谢拉·杰克逊 O'Shea Jackson Jr.
      希·庞德 CCH Pounder
      安东尼·拉莫斯 Anthony Ramos
      杰森·莱尔斯 Jason Liles
      乔纳森·霍华德 Jonathan Howard
      莱尔·布罗卡托 Lyle Brocato
      兰德尔·P·海文斯 Randall P. Havens
      T·C·马特恩 T.C. Matherne
      吉米·冈萨雷斯 Jimmy Gonzales
      萨莎·里翁达 Sasha Rionda
      文斯·福斯特 Vince Foster
      贾斯蒂斯·利克 Justice Leak
      菲奥娜·哈丁汉姆 Fiona Hardingham
      露西·卡罗尔 Lucie Carroll
      约书亚·利瑞 Joshua Leary
      艾伦·马克森 Alan Maxson
      肯尼斯·以色列 Kenneth Israel
      阿尔·维森特 Al Vicente
      塞西尔·M·亨利 Cecil M. Henry
      迈克尔·大卫·育尔 Michael David Yuhl
      本杰明·韦弗 Benjamin Weaver
      卡梅伦·布鲁姆布罗 Cameron Brumbelow
      帕蒂·舍尔哈斯 Patti Schellhaas
      理查德·多顿 Richard Dorton
      詹姆斯·斯特林 James Sterling
      麦克斯韦·海史姑娘 Maxwell Highsmith
      贾斯汀·斯劳特 Justin Slaughter
      肖恩·索斯 Shawn South
      马科·查卡 Marko Caka
      蒂莫西·卡尔 Timothy Carr

◎标  签 怪兽 | 科幻 | 灾难 | 美国 | 2019 | 殊效 | 行动 | 日本
◎简  介  
  随着《哥斯拉》和《金刚:骷髅岛》在全球范围内获得成功,传奇影业和华纳兄弟影业联手开启了怪兽宇宙系列电影的新篇章—一部史诗级行动冒险巨制。在这部电影中,哥斯拉将和众多大师在风行文化中所熟知的怪兽展开较劲。全新故事中,研讨奥秘动物学的机构“帝王构造”将勇敢直面巨型怪兽,其中强大的哥斯拉也将和魔斯拉、拉顿和它的死对头——三头王者基多拉展开剧烈匹敌。当这些只存在于传闻里的超级生物再度突起时,它们将展开王者争霸,人类的命运朝不保夕……
  1. Video
  2. ID                                       : 1
  3. Format                                   : AVC
  4. Format/Info                              : Advanced Video Codec
  5. Format profile                           : [email protected]
  6. Format settings                          : CABAC / 5 Ref Frames
  7. Format settings, CABAC                   : Yes
  8. Format settings, Reference frames        : 5 frames
  9. Codec ID                                 : V_MPEG4/ISO/AVC
  10. Duration                                 : 2 h 11 min
  11. Bit rate                                 : 8 865 kb/s
  12. Width                                    : 1 920 pixels
  13. Height                                   : 800 pixels
  14. Display aspect ratio                     : 2.40:1
  15. Frame rate mode                          : Constant
  16. Frame rate                               : 23.976 (24000/1001) FPS
  17. Color space                              : YUV
  18. Chroma subsampling                       : 4:2:0
  19. Bit depth                                : 8 bits
  20. Scan type                                : Progressive
  21. Bits/(Pixel*Frame)                       : 0.241
  22. Stream size                              : 8.15 GiB (93%)
  23. Writing library                          : x264 core 158 r2984 3759fcb
  24. Encoding settings                        : cabac=1 / ref=5 / deblock=1:-3:-3 / analyse=0x3:0x133 / me=umh / subme=8 / psy=1 / psy_rd=1.00:0.00 / mixed_ref=1 / me_range=16 / chroma_me=1 / trellis=1 / 8x8dct=1 / cqm=0 / deadzone=21,11 / fast_pskip=0 / chroma_qp_offset=-2 / threads=25 / lookahead_threads=4 / sliced_threads=0 / nr=0 / decimate=1 / interlaced=0 / bluray_compat=0 / constrained_intra=0 / bframes=3 / b_pyramid=2 / b_adapt=1 / b_bias=0 / direct=3 / weightb=1 / open_gop=0 / weightp=2 / keyint=250 / keyint_min=23 / scenecut=40 / intra_refresh=0 / rc_lookahead=50 / rc=2pass / mbtree=1 / bitrate=8865 / ratetol=1.0 / qcomp=0.60 / qpmin=0 / qpmax=69 / qpstep=4 / cplxblur=20.0 / qblur=0.5 / vbv_maxrate=62500 / vbv_bufsize=78125 / nal_hrd=none / filler=0 / ip_ratio=1.40 / aq=1:1.00
  25. Default                                  : Yes
  26. Forced                                   : No

  27. Audio
  28. ID                                       : 2
  29. Format                                   : AC-3
  30. Format/Info                              : Audio Coding 3
  31. Commercial name                          : Dolby Digital
  32. Codec ID                                 : A_AC3
  33. Duration                                 : 2 h 11 min
  34. Bit rate mode                            : Constant
  35. Bit rate                                 : 640 kb/s
  36. Channel(s)                               : 6 channels
  37. Channel layout                           : L R C LFE Ls Rs
  38. Sampling rate                            : 48.0 kHz
  39. Frame rate                               : 31.250 FPS (1536 SPF)
  40. Bit depth                                : 16 bits
  41. Compression mode                         : Lossy
  42. Stream size                              : 603 MiB (7%)
  43. Language                                 : English
  44. Service kind                             : Complete Main
  45. Default                                  : Yes
  46. Forced                                   : No

  47. Menu
  48. 00:00:00.000                             : en:00:00:00.000
  49. 00:10:53.903                             : en:00:10:53.903
  50. 00:18:06.836                             : en:00:18:06.836
  51. 00:30:27.325                             : en:00:30:27.325
  52. 00:45:18.633                             : en:00:45:18.633
  53. 00:54:11.039                             : en:00:54:11.039
  54. 01:05:41.646                             : en:01:05:41.646
  55. 01:09:31.584                             : en:01:09:31.584
  56. 01:19:31.308                             : en:01:19:31.308
  57. 01:30:06.234                             : en:01:30:06.234
  58. 01:38:36.869                             : en:01:38:36.869
  59. 01:49:58.884                             : en:01:49:58.884
  60. 01:59:28.828                             : en:01:59:28.828
复制代码




                                       
                                       

                                       
                                       
                                       




回复

使用道具 举报

懒得打字嘛,点击右侧快捷回复 【右侧内容,后台自定义】
您需要登录后才可以回帖 登录 | 立即加入

本版积分规则

Archiver|小黑屋| 蓝光电影网 |网站地图

Copyright © 2021 Comsenz Inc. Powered by 蓝光电影网

蓝光电影网

本站内容由用户自主分享和转载自互联网,转载目的在于传递更多信息,并不代表本网赞同其观点和对其真实性负责。

如有侵权、违反国家法律政策行为,请联系我们,我们会第一时间及时清除和处理!

举报反馈邮箱:[email protected]

快速回复 返回顶部 返回列表