找回密码

蓝光电影网

查看: 22|回复: 0

[剧情] 潜艇间谍战 Hell.and.High.Water.1954.1080p.BluRay.REMUX.AVC.DTS-HD.MA.5.1-FGT 19.38GB

[复制链接]
蓝光币
515
发表于 2019-7-30 08:53:57 | 显示全部楼层 |阅读模式


◎译  名 潜艇特务战
◎片  名 Hell and High Water
◎年  代 1954
◎产  地 美国
◎类  别 剧情 / 惊悚 / 冒险
◎语  言 英语 / 法语 / 意大利语 / 德语
◎上映日期 1954-02-06
◎IMDb评分  6.2/10 from 1374 users
◎IMDb链接  http://www.imdb.com/title/tt0047073
◎豆瓣评分 0/10 from 0 users
◎豆瓣链接 https://movie.douban.com/subject/3091027/
◎片  长 103 分钟
◎导  演 塞缪尔·富勒 Samuel Fuller
◎编  剧 David Hempstead / 塞缪尔·富勒 Samuel Fuller
◎主  演 理查德·威德马克 Richard Widmark

◎标  签 美国 | 塞缪尔·富勒 | Samuel_Fuller | 美国电影 | SamuelFuller | 1954 | 1950s | 政治
◎简  介  
  暂无相关剧情先容
◎获奖情况  
  第27届奥斯卡金像奖(1955)
  最好殊效(提名)

  1. Video
  2. ID                                       : 1
  3. Format                                   : AVC
  4. Format/Info                              : Advanced Video Codec
  5. Format profile                           : [email protected]
  6. Format settings                          : CABAC / 4 Ref Frames
  7. Format settings, CABAC                   : Yes
  8. Format settings, Reference frames        : 4 frames
  9. Codec ID                                 : V_MPEG4/ISO/AVC
  10. Duration                                 : 1 h 43 min
  11. Bit rate mode                            : Variable
  12. Bit rate                                 : 25.1 Mb/s
  13. Maximum bit rate                         : 35.0 Mb/s
  14. Width                                    : 1 920 pixels
  15. Height                                   : 1 080 pixels
  16. Display aspect ratio                     : 16:9
  17. Frame rate mode                          : Constant
  18. Frame rate                               : 23.976 (24000/1001) FPS
  19. Standard                                 : NTSC
  20. Color space                              : YUV
  21. Chroma subsampling                       : 4:2:0
  22. Bit depth                                : 8 bits
  23. Scan type                                : Progressive
  24. Bits/(Pixel*Frame)                       : 0.504
  25. Stream size                              : 18.0 GiB (93%)
  26. Title                                    : Hell.and.High.Water.1954.1080p.BluRay.REMUX.AVC.DTS-HD.MA.5.1-FGT
  27. Language                                 : English
  28. Default                                  : No
  29. Forced                                   : No
  30. Color range                              : Limited
  31. Color primaries                          : BT.709
  32. Transfer characteristics                 : BT.709
  33. Matrix coefficients                      : BT.709
  34. Audio #1
  35. ID                                       : 2
  36. Format                                   : DTS XLL
  37. Format/Info                              : Digital Theater Systems
  38. Commercial name                          : DTS-HD Master Audio
  39. Codec ID                                 : A_DTS
  40. Duration                                 : 1 h 43 min
  41. Bit rate mode                            : Variable
  42. Bit rate                                 : 1 207 kb/s
  43. Channel(s)                               : 6 channels
  44. Channel layout                           : C L R Ls Rs LFE
  45. Sampling rate                            : 48.0 kHz
  46. Frame rate                               : 93.750 FPS (512 SPF)
  47. Bit depth                                : 16 bits
  48. Compression mode                         : Lossless
  49. Stream size                              : 890 MiB (4%)
  50. Title                                    : Hell.and.High.Water.1954.1080p.BluRay.REMUX.AVC.DTS-HD.MA.5.1-FGT
  51. Language                                 : English
  52. Default                                  : Yes
  53. Forced                                   : No
  54. Audio #2
  55. ID                                       : 3
  56. Format                                   : DTS XLL
  57. Format/Info                              : Digital Theater Systems
  58. Commercial name                          : DTS-HD Master Audio
  59. Codec ID                                 : A_DTS
  60. Duration                                 : 1 h 43 min
  61. Bit rate mode                            : Variable
  62. Bit rate                                 : 636 kb/s
  63. Channel(s)                               : 2 channels
  64. Channel layout                           : L R
  65. Sampling rate                            : 48.0 kHz
  66. Frame rate                               : 93.750 FPS (512 SPF)
  67. Bit depth                                : 16 bits
  68. Compression mode                         : Lossless
  69. Stream size                              : 469 MiB (2%)
  70. Title                                    : Hell.and.High.Water.1954.1080p.BluRay.REMUX.AVC.DTS-HD.MA.5.1-FGT
  71. Language                                 : English
  72. Default                                  : No
  73. Forced                                   : No
  74. Text
  75. ID                                       : 4
  76. Format                                   : PGS
  77. Muxing mode                              : zlib
  78. Codec ID                                 : S_HDMV/PGS
  79. Codec ID/Info                            : Picture based subtitle format used on BDs/HD-DVDs
  80. Duration                                 : 1 h 42 min
  81. Bit rate                                 : 17.9 kb/s
  82. Count of elements                        : 2107
  83. Stream size                              : 13.2 MiB (0%)
  84. Title                                    : English-PGS
  85. Language                                 : English
  86. Default                                  : Yes
  87. Forced                                   : No
  88. Menu
  89. 00:00:00.000                             : en:Chapter 01
  90. 00:02:15.844                             : en:Chapter 02
  91. 00:06:12.372                             : en:Chapter 03
  92. 00:15:46.654                             : en:Chapter 04
  93. 00:23:48.552                             : en:Chapter 05
  94. 00:36:28.102                             : en:Chapter 06
  95. 00:44:01.055                             : en:Chapter 07
  96. 00:53:58.735                             : en:Chapter 08
  97. 01:05:35.848                             : en:Chapter 09
  98. 01:16:39.219                             : en:Chapter 10
  99. 01:33:30.062                             : en:Chapter 11
复制代码






                                       
                                       

                                       
                                       
                                       




回复

使用道具 举报

懒得打字嘛,点击右侧快捷回复 【右侧内容,后台自定义】
您需要登录后才可以回帖 登录 | 立即加入

本版积分规则

Archiver|小黑屋| 蓝光电影网 |网站地图

Copyright © 2021 Comsenz Inc. Powered by 蓝光电影网

蓝光电影网

本站内容由用户自主分享和转载自互联网,转载目的在于传递更多信息,并不代表本网赞同其观点和对其真实性负责。

如有侵权、违反国家法律政策行为,请联系我们,我们会第一时间及时清除和处理!

举报反馈邮箱:[email protected]

快速回复 返回顶部 返回列表