找回密码

蓝光电影网

查看: 14|回复: 0

[剧情] 威尼斯疑魂/小妖女 Dont.Look.Now.1973.NEW.REMASTERED.1080p.BluRay.REMUX.AVC.DTS-HD.MA.2.0-FGT 27.29GB

[复制链接]
蓝光币
515
发表于 2019-7-30 08:39:57 | 显示全部楼层 |阅读模式


◎译  名 威尼斯疑魂 / 小妖女 / 现在不要看 / 现在别看 / 血光鬼影夺命刀
◎片  名 Don't Look Now
◎年  代 1973
◎产  地 英国 / 意大利
◎类  别 剧情 / 悬疑 / 可骇
◎语  言 英语 / 意大利语
◎上映日期 1973-12-09
◎IMDb评分  7.3/10 from 43504 users
◎IMDb链接  http://www.imdb.com/title/tt0069995
◎豆瓣评分 7.1/10 from 2280 users
◎豆瓣链接 https://movie.douban.com/subject/1302294/
◎片  长 110 分钟
◎导  演 Nicolas Roeg
◎编  剧 Allan Scott / Chris Bryant
◎主  演 Julie Christie
      Donald Sutherland
      Hilary Mason
      Clelia Matania
      Massimo Serato

◎标  签 英国 | 惊悚 | 意大利 | 可骇 | 悬疑 | 1973 | 1970s | 英国电影
◎简  介  
  修建师John Baxter(唐纳德·萨瑟兰 Donald Sutherland 饰)与其妻子Laura(朱莉·克里斯蒂 Julie Christie 饰)育有一男一女。有一天,女儿稀里糊涂地溺水身亡。Laura沉醉在悲痛中。John由于工作缘由,带着Laura来到威尼斯,停止一个教堂的修缮工作。在那边,Laura熟悉了两个老太婆,里面有一个盲人,听说能通灵,能看见Baxter佳耦的女儿。Laura晕了曩昔,醒来以后却摆脱了女儿灭亡的阴影。通灵的老太婆告诉Laura,假如John继续留在威尼斯的话,会有危险。Laura劝John赶紧分开,John却不相信所谓通灵,继续留在威尼斯停止工作。果不其然,John在工作中发生了意外,而他们在英国念书的儿子病倒了。Laura急忙搭飞机返国,而John却在威尼斯发现Laura跟那两个老太婆在一路。发生在威尼斯的这个故事变得越来越扑朔迷离......本片在Time Out 2011“史上最好100部英国电影”中排名第一。
  1. Video
  2. ID                                       : 1
  3. Format                                   : AVC
  4. Format/Info                              : Advanced Video Codec
  5. Format profile                           : [email protected]
  6. Format settings                          : CABAC / 3 Ref Frames
  7. Format settings, CABAC                   : Yes
  8. Format settings, Reference frames        : 3 frames
  9. Codec ID                                 : V_MPEG4/ISO/AVC
  10. Duration                                 : 1 h 50 min
  11. Bit rate mode                            : Variable
  12. Bit rate                                 : 33.8 Mb/s
  13. Maximum bit rate                         : 35.0 Mb/s
  14. Width                                    : 1 920 pixels
  15. Height                                   : 1 080 pixels
  16. Display aspect ratio                     : 16:9
  17. Frame rate mode                          : Constant
  18. Frame rate                               : 24.000 FPS
  19. Color space                              : YUV
  20. Chroma subsampling                       : 4:2:0
  21. Bit depth                                : 8 bits
  22. Scan type                                : Progressive
  23. Bits/(Pixel*Frame)                       : 0.678
  24. Stream size                              : 26.0 GiB (95%)
  25. Title                                    : Dont.Look.Now.1973.NEW.REMASTERED.1080p.BluRay.REMUX.AVC.DTS-HD.MA.2.0-FGT
  26. Language                                 : English
  27. Default                                  : No
  28. Forced                                   : No
  29. Color range                              : Limited
  30. Color primaries                          : BT.709
  31. Transfer characteristics                 : BT.709
  32. Matrix coefficients                      : BT.709
  33. Audio #1
  34. ID                                       : 2
  35. Format                                   : DTS XLL
  36. Format/Info                              : Digital Theater Systems
  37. Commercial name                          : DTS-HD Master Audio
  38. Codec ID                                 : A_DTS
  39. Duration                                 : 1 h 50 min
  40. Bit rate mode                            : Variable
  41. Bit rate                                 : 1 479 kb/s
  42. Channel(s)                               : 2 channels
  43. Channel layout                           : L R
  44. Sampling rate                            : 48.0 kHz
  45. Frame rate                               : 93.750 FPS (512 SPF)
  46. Bit depth                                : 24 bits
  47. Compression mode                         : Lossless
  48. Stream size                              : 1.14 GiB (4%)
  49. Title                                    : Dont.Look.Now.1973.NEW.REMASTERED.1080p.BluRay.REMUX.AVC.DTS-HD.MA.2.0-FGT
  50. Language                                 : English
  51. Default                                  : Yes
  52. Forced                                   : No
  53. Audio #2
  54. ID                                       : 3
  55. Format                                   : AC-3
  56. Format/Info                              : Audio Coding 3
  57. Commercial name                          : Dolby Digital
  58. Codec ID                                 : A_AC3
  59. Duration                                 : 1 h 50 min
  60. Bit rate mode                            : Constant
  61. Bit rate                                 : 192 kb/s
  62. Channel(s)                               : 2 channels
  63. Channel layout                           : L R
  64. Sampling rate                            : 48.0 kHz
  65. Frame rate                               : 31.250 FPS (1536 SPF)
  66. Bit depth                                : 16 bits
  67. Compression mode                         : Lossy
  68. Stream size                              : 151 MiB (1%)
  69. Title                                    : Dont.Look.Now.1973.NEW.REMASTERED.1080p.BluRay.REMUX.AVC.DTS-HD.MA.2.0-FGT
  70. Language                                 : English
  71. Service kind                             : Complete Main
  72. Default                                  : No
  73. Forced                                   : No
  74. Text #1
  75. ID                                       : 4
  76. Format                                   : UTF-8
  77. Codec ID                                 : S_TEXT/UTF8
  78. Codec ID/Info                            : UTF-8 Plain Text
  79. Duration                                 : 1 h 44 min
  80. Bit rate                                 : 32 b/s
  81. Count of elements                        : 777
  82. Stream size                              : 25.2 KiB (0%)
  83. Title                                    : English-SRT
  84. Language                                 : English
  85. Default                                  : Yes
  86. Forced                                   : No
  87. Text #2
  88. ID                                       : 5
  89. Format                                   : UTF-8
  90. Codec ID                                 : S_TEXT/UTF8
  91. Codec ID/Info                            : UTF-8 Plain Text
  92. Duration                                 : 1 h 44 min
  93. Bit rate                                 : 35 b/s
  94. Count of elements                        : 883
  95. Stream size                              : 27.1 KiB (0%)
  96. Title                                    : English-SDH-SRT
  97. Language                                 : English
  98. Default                                  : No
  99. Forced                                   : No
  100. Text #3
  101. ID                                       : 6
  102. Format                                   : PGS
  103. Muxing mode                              : zlib
  104. Codec ID                                 : S_HDMV/PGS
  105. Codec ID/Info                            : Picture based subtitle format used on BDs/HD-DVDs
  106. Duration                                 : 1 h 44 min
  107. Bit rate                                 : 22.1 kb/s
  108. Count of elements                        : 1766
  109. Stream size                              : 16.6 MiB (0%)
  110. Title                                    : English-PGS
  111. Language                                 : English
  112. Default                                  : No
  113. Forced                                   : No
  114. Menu
  115. 00:00:00.000                             : en:Chapter 01
  116. 00:07:48.958                             : en:Chapter 02
  117. 00:16:33.000                             : en:Chapter 03
  118. 00:25:55.458                             : en:Chapter 04
  119. 00:37:24.541                             : en:Chapter 05
  120. 00:43:20.958                             : en:Chapter 06
  121. 00:53:40.458                             : en:Chapter 07
  122. 00:59:09.250                             : en:Chapter 08
  123. 01:06:12.291                             : en:Chapter 09
  124. 01:20:18.208                             : en:Chapter 10
  125. 01:30:27.666                             : en:Chapter 11
  126. 01:41:11.791                             : en:Chapter 12
复制代码






                                       
                                       

                                       
                                       
                                       




回复

使用道具 举报

懒得打字嘛,点击右侧快捷回复 【右侧内容,后台自定义】
您需要登录后才可以回帖 登录 | 立即加入

本版积分规则

Archiver|小黑屋| 蓝光电影网 |网站地图

Copyright © 2021 Comsenz Inc. Powered by 蓝光电影网

蓝光电影网

本站内容由用户自主分享和转载自互联网,转载目的在于传递更多信息,并不代表本网赞同其观点和对其真实性负责。

如有侵权、违反国家法律政策行为,请联系我们,我们会第一时间及时清除和处理!

举报反馈邮箱:[email protected]

快速回复 返回顶部 返回列表