找回密码

蓝光电影网

查看: 22|回复: 0

[剧情] 墨西哥裔美国人 El.Chicano.2018.1080p.BluRay.REMUX.AVC.DTS-HD.MA.5.1-FGT 26.78GB

[复制链接]
蓝光币
519
发表于 2019-7-30 06:16:47 | 显示全部楼层 |阅读模式


◎译  名 墨西哥裔美国人
◎片  名 El Chicano
◎年  代 2019
◎产  地 美国
◎类  别 剧情 / 行动
◎语  言 英语
◎上映日期 2018-09-22(洛杉矶电影节) / 2018-10-26(奥斯丁电影节) / 2019-05-03(美国)
◎IMDb评分  5.6/10 from 305 users
◎IMDb链接  http://www.imdb.com/title/tt7374952
◎豆瓣评分 0/10 from 0 users
◎豆瓣链接 https://movie.douban.com/subject/27132201/
◎片  长 142分钟(festival)
◎导  演 Ben Bray
◎编  剧 Ben Bray / 乔·卡纳汉 Joe Carnahan
◎主  演 弗兰克·格里罗 Frank Grillo

◎标  签 美国 | 行动 | 美国电影 | 影院 | Yilin | 2010s
◎简  介  
  “穿插骨”弗兰克·格里罗将出演新片[墨西哥裔美国人](El Chicano,暂译)。在[战狼2]中有出色表示的弗兰克·格里罗,在刚刚公布预告的[梢公]后,又将出演新的行动片。影片将报告两兄弟因性情悬殊而走向截然分歧命运的故事。
  1. Video
  2. ID                                       : 1
  3. Format                                   : AVC
  4. Format/Info                              : Advanced Video Codec
  5. Format profile                           : [email protected]
  6. Format settings                          : CABAC / 4 Ref Frames
  7. Format settings, CABAC                   : Yes
  8. Format settings, Reference frames        : 4 frames
  9. Codec ID                                 : V_MPEG4/ISO/AVC
  10. Duration                                 : 1 h 48 min
  11. Bit rate mode                            : Variable
  12. Bit rate                                 : 31.7 Mb/s
  13. Maximum bit rate                         : 35.0 Mb/s
  14. Width                                    : 1 920 pixels
  15. Height                                   : 1 080 pixels
  16. Display aspect ratio                     : 16:9
  17. Frame rate mode                          : Constant
  18. Frame rate                               : 23.976 (24000/1001) FPS
  19. Color space                              : YUV
  20. Chroma subsampling                       : 4:2:0
  21. Bit depth                                : 8 bits
  22. Scan type                                : Progressive
  23. Bits/(Pixel*Frame)                       : 0.637
  24. Stream size                              : 24.0 GiB (90%)
  25. Title                                    : El.Chicano.2018.1080p.BluRay.REMUX.AVC.DTS-HD.MA.5.1-FGT
  26. Language                                 : English
  27. Default                                  : No
  28. Forced                                   : No
  29. Audio #1
  30. ID                                       : 2
  31. Format                                   : DTS XLL
  32. Format/Info                              : Digital Theater Systems
  33. Commercial name                          : DTS-HD Master Audio
  34. Codec ID                                 : A_DTS
  35. Duration                                 : 1 h 48 min
  36. Bit rate mode                            : Variable
  37. Bit rate                                 : 3 490 kb/s
  38. Channel(s)                               : 6 channels
  39. Channel layout                           : C L R Ls Rs LFE
  40. Sampling rate                            : 48.0 kHz
  41. Frame rate                               : 93.750 FPS (512 SPF)
  42. Bit depth                                : 24 bits
  43. Compression mode                         : Lossless
  44. Stream size                              : 2.64 GiB (10%)
  45. Title                                    : El.Chicano.2018.1080p.BluRay.REMUX.AVC.DTS-HD.MA.5.1-FGT
  46. Language                                 : English
  47. Default                                  : Yes
  48. Forced                                   : No
  49. Audio #2
  50. ID                                       : 3
  51. Format                                   : AC-3
  52. Format/Info                              : Audio Coding 3
  53. Commercial name                          : Dolby Digital
  54. Codec ID                                 : A_AC3
  55. Duration                                 : 1 h 48 min
  56. Bit rate mode                            : Constant
  57. Bit rate                                 : 192 kb/s
  58. Channel(s)                               : 2 channels
  59. Channel layout                           : L R
  60. Sampling rate                            : 48.0 kHz
  61. Frame rate                               : 31.250 FPS (1536 SPF)
  62. Bit depth                                : 16 bits
  63. Compression mode                         : Lossy
  64. Stream size                              : 149 MiB (1%)
  65. Title                                    : El.Chicano.2018.1080p.BluRay.REMUX.AVC.DTS-HD.MA.5.1-FGT
  66. Language                                 : English
  67. Service kind                             : Complete Main
  68. Default                                  : No
  69. Forced                                   : No
  70. Text #1
  71. ID                                       : 4
  72. Format                                   : UTF-8
  73. Codec ID                                 : S_TEXT/UTF8
  74. Codec ID/Info                            : UTF-8 Plain Text
  75. Duration                                 : 1 h 40 min
  76. Bit rate                                 : 52 b/s
  77. Count of elements                        : 1084
  78. Stream size                              : 38.3 KiB (0%)
  79. Title                                    : English-SRT
  80. Language                                 : English
  81. Default                                  : Yes
  82. Forced                                   : No
  83. Text #2
  84. ID                                       : 5
  85. Format                                   : PGS
  86. Muxing mode                              : zlib
  87. Codec ID                                 : S_HDMV/PGS
  88. Codec ID/Info                            : Picture based subtitle format used on BDs/HD-DVDs
  89. Duration                                 : 1 h 41 min
  90. Bit rate                                 : 38.1 kb/s
  91. Count of elements                        : 2529
  92. Stream size                              : 27.6 MiB (0%)
  93. Title                                    : English-PGS
  94. Language                                 : English
  95. Default                                  : No
  96. Forced                                   : No
  97. Text #3
  98. ID                                       : 6
  99. Format                                   : PGS
  100. Muxing mode                              : zlib
  101. Codec ID                                 : S_HDMV/PGS
  102. Codec ID/Info                            : Picture based subtitle format used on BDs/HD-DVDs
  103. Duration                                 : 1 h 47 min
  104. Bit rate                                 : 26.9 kb/s
  105. Count of elements                        : 2145
  106. Stream size                              : 20.7 MiB (0%)
  107. Title                                    : Spanish-PGS
  108. Language                                 : Spanish
  109. Default                                  : No
  110. Forced                                   : No
  111. Text #4
  112. ID                                       : 7
  113. Format                                   : PGS
  114. Muxing mode                              : zlib
  115. Codec ID                                 : S_HDMV/PGS
  116. Codec ID/Info                            : Picture based subtitle format used on BDs/HD-DVDs
  117. Duration                                 : 1 h 46 min
  118. Bit rate                                 : 29.2 kb/s
  119. Count of elements                        : 2217
  120. Stream size                              : 22.2 MiB (0%)
  121. Title                                    : French-PGS
  122. Language                                 : French
  123. Default                                  : No
  124. Forced                                   : No
  125. Menu
  126. 00:00:00.000                             : en:Chapter 01
  127. 00:07:38.916                             : en:Chapter 02
  128. 00:13:32.728                             : en:Chapter 03
  129. 00:18:40.869                             : en:Chapter 04
  130. 00:25:45.794                             : en:Chapter 05
  131. 00:28:17.278                             : en:Chapter 06
  132. 00:35:08.731                             : en:Chapter 07
  133. 00:40:10.157                             : en:Chapter 08
  134. 00:47:38.021                             : en:Chapter 09
  135. 00:51:28.794                             : en:Chapter 10
  136. 00:57:48.882                             : en:Chapter 11
  137. 01:01:13.169                             : en:Chapter 12
  138. 01:04:07.635                             : en:Chapter 13
  139. 01:08:14.298                             : en:Chapter 14
  140. 01:14:03.939                             : en:Chapter 15
  141. 01:17:19.051                             : en:Chapter 16
  142. 01:22:21.436                             : en:Chapter 17
  143. 01:29:33.034                             : en:Chapter 18
  144. 01:35:55.583                             : en:Chapter 19
  145. 01:42:48.871                             : en:Chapter 20
复制代码






                                       
                                       

                                       
                                       
                                       




回复

使用道具 举报

懒得打字嘛,点击右侧快捷回复 【右侧内容,后台自定义】
您需要登录后才可以回帖 登录 | 立即加入

本版积分规则

Archiver|小黑屋| 蓝光电影网 |网站地图

Copyright © 2021 Comsenz Inc. Powered by 蓝光电影网

蓝光电影网

本站内容由用户自主分享和转载自互联网,转载目的在于传递更多信息,并不代表本网赞同其观点和对其真实性负责。

如有侵权、违反国家法律政策行为,请联系我们,我们会第一时间及时清除和处理!

举报反馈邮箱:[email protected]

快速回复 返回顶部 返回列表