找回密码

蓝光电影网

查看: 16|回复: 0

[其他] 后妻业之女 Black.Widow.Business.2016.JAPANESE.1080p.BluRay.x264.DTS-WiKi 10.30GB

[复制链接]
蓝光币
515
发表于 2020-9-27 09:18:21 | 显示全部楼层 |阅读模式


◎译  名 继配业之女/Black Widow Business/Gosai Gyo no Onna
◎片  名 後妻業の女
◎年  代 2016
◎产  地 日本
◎类  别 悬疑
◎语  言 日语
◎上映日期 2016-08-27(日本)
◎IMDb评分  6.3/10 from 61 users
◎IMDb链接  https://www.imdb.com/title/tt4920094/
◎豆瓣评分 6.7/10 from 849 users
◎豆瓣链接 https://movie.douban.com/subject/26584780/
◎片  长 128分钟
◎导  演 鹤桥康夫 Yasuo Tsuruhashi
◎编  剧 黑川博行 Hiroyuki Kurokawa / 鹤桥康夫 Yasuo Tsuruhashi
◎主  演 大竹忍 Shinobu ?take
       丰川悦司 Etsushi Toyokawa
       尾野真千子 Machiko Ono
       长谷川京子 Kyoko Hasegawa
       水川麻美 Asami Mizukawa
       风间俊介 Shunsuke Kazama
       余贵美子 Kimiko Yo
       美村里江 Mimura
       松尾谕 Satoru Matsuo
       笑福亭鹤光 Tsuruko Sh?fukutei
       樋井明日香 Asuka Hinoi
       梶原善 Zen Kajiwara
       六平直政 Naomasa Musaka
       森本治行 Leo Morimoto
       伊武雅刀 Masat? Ibu
       泉谷茂 Shigeru Izumiya
       柄本明 Akira Emoto
       笑福亭鹤瓶 Tsurubei Shofukutei
       津川雅彦 Masahiko Tsugawa
       永濑正敏 Masatoshi Nagase
◎标  签 日本 | 2016 | 犯罪 | 笑剧 | 剧情 | 电影 | 黑色 | 黑色诙谐
◎简  介


  《继配业之女》按照黑川博行的小说改编,以一个经过嫁给孤独敷裕的汉子做继配以获得财富的女报酬中心,反应出人类的愿望。不竭欺骗汉子的仆人公小夜子由大竹忍饰演,和她一路欺骗老人的婚姻先容所所长由丰川悦司饰演。
◎获奖情况
  第40届日本电影学院奖 ?(2017)
  最好女配角(提名) 大竹忍
  1. Video
  2. ID                                       : 1
  3. Format                                   : AVC
  4. Format/Info                              : Advanced Video Codec
  5. Format profile                           : [email protected]
  6. Format settings, CABAC                   : Yes
  7. Format settings, ReFrames                : 5 frames
  8. Codec ID                                 : V_MPEG4/ISO/AVC
  9. Duration                                 : 2h 7mn
  10. Bit rate                                 : 10.0 Mbps
  11. Width                                    : 1 920 pixels
  12. Height                                   : 804 pixels
  13. Display aspect ratio                     : 2.40:1
  14. Frame rate mode                          : Constant
  15. Frame rate                               : 23.976 (24000/1001) fps
  16. Color space                              : YUV
  17. Chroma subsampling                       : 4:2:0
  18. Bit depth                                : 8 bits
  19. Scan type                                : Progressive
  20. Bits/(Pixel*Frame)                       : 0.270
  21. Stream size                              : 8.94 GiB (87%)
  22. Writing library                          : x264 core 129 r2245+704+36 8e61944 tMod+MixAQ [[email protected]:2:0 X86_64]
  23. Encoding settings                        : cabac=1 / ref=5 / deblock=1:-3:-3 / analyse=0x3:0x133 / me=umh / subme=11 / psy=1 / fade_compensate=0.00 / psy_rd=1.05:0.10 / mixed_ref=1 / me_range=64 / chroma_me=1 / trellis=2 / 8x8dct=1 / cqm=0 / deadzone=21,11 / fast_pskip=0 / chroma_qp_offset=-3 / threads=18 / lookahead_threads=3 / sliced_threads=0 / nr=0 / decimate=0 / interlaced=0 / bluray_compat=0 / constrained_intra=0 / fgo=0 / bframes=10 / b_pyramid=2 / b_adapt=2 / b_bias=0 / direct=3 / weightb=1 / open_gop=0 / weightp=2 / keyint=250 / keyint_min=23 / scenecut=40 / intra_refresh=0 / rc_lookahead=80 / rc=2pass / mbtree=1 / bitrate=10008 / ratetol=1.0 / qcomp=0.70 / qpmin=0 / qpmax=69 / qpstep=4 / cplxblur=20.0 / qblur=0.5 / ip_ratio=1.40 / aq=1 / aq-strength=0.85 / aq-sensitivity=10.00 / aq-ifactor=1.00 / aq-pfactor=1.00 / aq-bfactor=1.00 / aq2=0
  24. Language                                 : Japanese
  25. Default                                  : Yes
  26. Forced                                   : No
  27. Audio
  28. ID                                       : 2
  29. Format                                   : DTS
  30. Format/Info                              : Digital Theater Systems
  31. Mode                                     : 16
  32. Format settings, Endianness              : Big
  33. Codec ID                                 : A_DTS
  34. Duration                                 : 2h 7mn
  35. Bit rate mode                            : Constant
  36. Bit rate                                 : 1 509 Kbps
  37. Channel(s)                               : 6 channels
  38. Channel positions                        : Front: L C R, Side: L R, LFE
  39. Sampling rate                            : 48.0 KHz
  40. Frame rate                               : 93.750 fps (512 spf)
  41. Bit depth                                : 24 bits
  42. Compression mode                         : Lossy
  43. Stream size                              : 1.35 GiB (13%)
  44. Language                                 : Japanese
  45. Default                                  : Yes
  46. Forced                                   : No
  47. Text
  48. ID                                       : 3
  49. Format                                   : ASS
  50. Codec ID                                 : S_TEXT/ASS
  51. Codec ID/Info                            : Advanced Sub Station Alpha
  52. Duration                                 : 2h 7mn
  53. Bit rate                                 : 95 bps
  54. Count of elements                        : 1793
  55. Compression mode                         : Lossless
  56. Stream size                              : 89.4 KiB (0%)
  57. Language                                 : Chinese
  58. Default                                  : Yes
  59. Forced                                   : No
  60. Menu
  61. 00:00:00.000                             : en:00:00:00.000
  62. 00:08:18.331                             : en:00:08:18.331
  63. 00:14:26.448                             : en:00:14:26.448
  64. 00:28:24.369                             : en:00:28:24.369
  65. 00:38:21.173                             : en:00:38:21.173
  66. 00:45:00.698                             : en:00:45:00.698
  67. 00:57:06.214                             : en:00:57:06.214
  68. 01:09:17.695                             : en:01:09:17.695
  69. 01:22:34.074                             : en:01:22:34.074
  70. 01:32:00.932                             : en:01:32:00.932
  71. 01:39:21.497                             : en:01:39:21.497
  72. 01:46:47.359                             : en:01:46:47.359
  73. 01:53:48.029                             : en:01:53:48.029
  74. 02:04:33.799                             : en:02:04:33.799
  75. 02:07:53.666                             : en:02:07:53.666
复制代码








                                       
                                       

                                       
                                       
                                       




回复

使用道具 举报

懒得打字嘛,点击右侧快捷回复 【右侧内容,后台自定义】
您需要登录后才可以回帖 登录 | 立即加入

本版积分规则

Archiver|小黑屋| 蓝光电影网 |网站地图

Copyright © 2021 Comsenz Inc. Powered by 蓝光电影网

蓝光电影网

本站内容由用户自主分享和转载自互联网,转载目的在于传递更多信息,并不代表本网赞同其观点和对其真实性负责。

如有侵权、违反国家法律政策行为,请联系我们,我们会第一时间及时清除和处理!

举报反馈邮箱:[email protected]

快速回复 返回顶部 返回列表