找回密码

蓝光电影网

查看: 21|回复: 0

[剧情] 雷和莉兹/我的极品父母 Ray.and.Liz.2018.1080p.BluRay.REMUX.AVC.DD5.1-FGT 22.87GB

[复制链接]
蓝光币
515
发表于 2019-7-30 06:11:53 | 显示全部楼层 |阅读模式


◎译  名 雷和莉兹 / 我的极品怙恃(港)
◎片  名 Ray & Liz
◎年  代 2018
◎产  地 英国
◎类  别 剧情
◎语  言 英语
◎上映日期 2018-08-05(洛迦诺电影节) / 2019-03-08(英国)
◎IMDb评分  7.1/10 from 426 users
◎IMDb链接  http://www.imdb.com/title/tt6601502
◎豆瓣评分 7.0/10 from 63 users
◎豆瓣链接 https://movie.douban.com/subject/30271178/
◎片  长 108分钟
◎导  演 理查德·比灵厄姆 Richard Billingham
◎编  剧 理查德·比灵厄姆 Richard Billingham
◎主  演 Michelle Bonnard
      詹姆斯·伊莱斯 James Eeles
      Sam Gittins
      安德鲁·杰弗森-蒂尔尼 Andrew Jefferson-Tierney
      Ella Smith
      托尼·威 Tony Way

◎标  签 英国 | 2018 | 家庭 | 洛迦诺电影节 | 英国电影 | 剧情 | Richard_Billingham | 2010s
◎简  介  
  酗酒頹父、癡肥惡母,以廉價相機拍攝的一張張私密家庭照片,絢爛色彩與模糊影象帶來真實坦白的震动。英國著名影象藝術家李察邊寧咸將攝影集《雷的笑聲》轉化成電影首作,以十六毫米胶卷重塑戴卓爾年月,勞動階層一家窩居廉租屋的清貧歲月。蕾絲窗簾飄渺的昏黃回憶裏,是乏人顾问的三段成長經歷;时光在花卉牆紙上剝落,不曾褪色的是孤單裏的微溫淺笑。比堅盧治輕盈,比邁克李抽離,細膩感情卻同樣縈繞心頭。羅迦諾電影節評審團大獎。
◎获奖情况  
  第72届英国电影学院奖(2019)
  电影奖 英国外乡精采童贞作(提名) 理查德·比灵厄姆
  第71届洛迦诺国际电影节(2018)
  金豹奖(提名) 理查德·比灵厄姆
  评审团出格奖 理查德·比灵厄姆
  第21届英国自力电影奖(2018)
  最好新人导演 理查德·比灵厄姆
  制片冲破
  最好艺术指导(提名)

  1. Video
  2. ID                                       : 1
  3. Format                                   : AVC
  4. Format/Info                              : Advanced Video Codec
  5. Format profile                           : [email protected]
  6. Format settings                          : CABAC / 4 Ref Frames
  7. Format settings, CABAC                   : Yes
  8. Format settings, Reference frames        : 4 frames
  9. Format settings, GOP                     : M=3, N=24
  10. Codec ID                                 : V_MPEG4/ISO/AVC
  11. Duration                                 : 1 h 48 min
  12. Bit rate mode                            : Variable
  13. Bit rate                                 : 29.6 Mb/s
  14. Maximum bit rate                         : 35.0 Mb/s
  15. Width                                    : 1 920 pixels
  16. Height                                   : 1 080 pixels
  17. Display aspect ratio                     : 16:9
  18. Frame rate mode                          : Constant
  19. Frame rate                               : 24.000 FPS
  20. Color space                              : YUV
  21. Chroma subsampling                       : 4:2:0
  22. Bit depth                                : 8 bits
  23. Scan type                                : Progressive
  24. Bits/(Pixel*Frame)                       : 0.594
  25. Stream size                              : 22.3 GiB (98%)
  26. Title                                    : Ray.and.Liz.2018.1080p.BluRay.REMUX.AVC.DD5.1-FGT
  27. Language                                 : English
  28. Default                                  : No
  29. Forced                                   : No
  30. Color range                              : Limited
  31. Color primaries                          : BT.709
  32. Transfer characteristics                 : BT.709
  33. Matrix coefficients                      : BT.709
  34. Audio #1
  35. ID                                       : 2
  36. Format                                   : AC-3
  37. Format/Info                              : Audio Coding 3
  38. Commercial name                          : Dolby Digital
  39. Codec ID                                 : A_AC3
  40. Duration                                 : 1 h 48 min
  41. Bit rate mode                            : Constant
  42. Bit rate                                 : 448 kb/s
  43. Channel(s)                               : 6 channels
  44. Channel layout                           : L R C LFE Ls Rs
  45. Sampling rate                            : 48.0 kHz
  46. Frame rate                               : 31.250 FPS (1536 SPF)
  47. Bit depth                                : 16 bits
  48. Compression mode                         : Lossy
  49. Stream size                              : 347 MiB (1%)
  50. Title                                    : Ray.and.Liz.2018.1080p.BluRay.REMUX.AVC.DD5.1-FGT
  51. Language                                 : English
  52. Service kind                             : Complete Main
  53. Default                                  : Yes
  54. Forced                                   : No
  55. Audio #2
  56. ID                                       : 3
  57. Format                                   : AC-3
  58. Format/Info                              : Audio Coding 3
  59. Commercial name                          : Dolby Digital
  60. Codec ID                                 : A_AC3
  61. Duration                                 : 1 h 48 min
  62. Bit rate mode                            : Constant
  63. Bit rate                                 : 256 kb/s
  64. Channel(s)                               : 2 channels
  65. Channel layout                           : L R
  66. Sampling rate                            : 48.0 kHz
  67. Frame rate                               : 31.250 FPS (1536 SPF)
  68. Bit depth                                : 16 bits
  69. Compression mode                         : Lossy
  70. Stream size                              : 198 MiB (1%)
  71. Title                                    : Ray.and.Liz.2018.1080p.BluRay.REMUX.AVC.DD5.1-FGT
  72. Language                                 : English
  73. Service kind                             : Complete Main
  74. Default                                  : No
  75. Forced                                   : No
  76. Text
  77. ID                                       : 4
  78. Format                                   : PGS
  79. Muxing mode                              : zlib
  80. Codec ID                                 : S_HDMV/PGS
  81. Codec ID/Info                            : Picture based subtitle format used on BDs/HD-DVDs
  82. Duration                                 : 1 h 43 min
  83. Bit rate                                 : 23.3 kb/s
  84. Count of elements                        : 1902
  85. Stream size                              : 17.3 MiB (0%)
  86. Title                                    : English-PGS
  87. Language                                 : English
  88. Default                                  : Yes
  89. Forced                                   : No
  90. Menu
  91. 00:00:00.000                             : en:Chapter 01
  92. 00:10:50.041                             : en:Chapter 02
  93. 00:19:02.625                             : en:Chapter 03
  94. 00:28:19.750                             : en:Chapter 04
  95. 00:36:34.500                             : en:Chapter 05
  96. 00:44:47.291                             : en:Chapter 06
  97. 00:51:39.125                             : en:Chapter 07
  98. 01:02:16.125                             : en:Chapter 08
  99. 01:12:44.333                             : en:Chapter 09
  100. 01:24:20.750                             : en:Chapter 10
  101. 01:29:32.500                             : en:Chapter 11
  102. 01:37:15.583                             : en:Chapter 12
复制代码






                                       
                                       

                                       
                                       
                                       




回复

使用道具 举报

懒得打字嘛,点击右侧快捷回复 【右侧内容,后台自定义】
您需要登录后才可以回帖 登录 | 立即加入

本版积分规则

Archiver|小黑屋| 蓝光电影网 |网站地图

Copyright © 2021 Comsenz Inc. Powered by 蓝光电影网

蓝光电影网

本站内容由用户自主分享和转载自互联网,转载目的在于传递更多信息,并不代表本网赞同其观点和对其真实性负责。

如有侵权、违反国家法律政策行为,请联系我们,我们会第一时间及时清除和处理!

举报反馈邮箱:[email protected]

快速回复 返回顶部 返回列表