找回密码

蓝光电影网

查看: 15|回复: 0

[动作] 雙俠 The.Deadly.Duo.1971.1080p.BluRay.x264-SADPANDA 5.46GB

[复制链接]
蓝光币
511
发表于 2019-8-17 10:52:43 | 显示全部楼层 |阅读模式


◎译  名 双侠 / The Deadly Duo
◎片  名 雙俠
◎年  代 1971
◎产  地 香港
◎类  别 行动 / 历史 / 武侠 / 古装
◎语  言 汉语普通话
◎上映日期 1971-12-22
◎IMDb评分  6.7/10 from 387 users
◎IMDb链接  http://www.imdb.com/title/tt0069540
◎豆瓣评分 7.1/10 from 1149 users
◎豆瓣链接 https://movie.douban.com/subject/1303759/
◎片  长 83分钟
◎导  演 张彻
◎编  剧 倪匡
◎主  演 狄龙
       姜大卫
       谷峰
       郑雷
       陈星

◎标  签 邵氏 | 张彻 | 姜大卫 | 狄龙 | 香港 | 武侠 | 香港电影 | 姜大卫+狄龙
◎简  介  
  北宋时代,康王被金人抓获囚于险峻之地,看管者除了金太子(陈星),还有黑道高手万天奎(谷峰)。江湖各路义士为救康王,想出很多计谋,无法囚房地点处阵势实在险峻,加上对手提防异常周密,众人一筹莫展。
  商议以后,鲍廷天(狄龙)决议去找高手容貌(姜大卫)互助,不想万天奎也正欲拉容貌入伙,打架在所难免。经过一番长久误解,鲍廷天与容貌结为一面之交,容貌也决意助好兄弟完成大义之举。在作预备工作时,目睹众人再因阵势题目成无头苍蝇,容貌决议铤而走险。
  1. Video
  2. ID                                       : 1
  3. Format                                   : AVC
  4. Format/Info                              : Advanced Video Codec
  5. Format profile                           : [email protected]
  6. Format settings                          : CABAC / 5 Ref Frames
  7. Format settings, CABAC                   : Yes
  8. Format settings, Reference frames        : 5 frames
  9. Codec ID                                 : V_MPEG4/ISO/AVC
  10. Duration                                 : 1 h 21 min
  11. Bit rate                                 : 8 510 kb/s
  12. Width                                    : 1 920 pixels
  13. Height                                   : 808 pixels
  14. Display aspect ratio                     : 2.40:1
  15. Frame rate mode                          : Constant
  16. Frame rate                               : 23.976 (24000/1001) FPS
  17. Color space                              : YUV
  18. Chroma subsampling                       : 4:2:0
  19. Bit depth                                : 8 bits
  20. Scan type                                : Progressive
  21. Bits/(Pixel*Frame)                       : 0.229
  22. Stream size                              : 4.84 GiB (89%)
  23. Writing library                          : x264 core 146 r2538 121396c
  24. Encoding settings                        : cabac=1 / ref=5 / deblock=1:0:0 / analyse=0x3:0x133 / me=umh / subme=8 / psy=1 / psy_rd=1.00:0.00 / mixed_ref=1 / me_range=16 / chroma_me=1 / trellis=1 / 8x8dct=1 / cqm=0 / deadzone=21,11 / fast_pskip=0 / chroma_qp_offset=-2 / threads=12 / lookahead_threads=2 / sliced_threads=0 / nr=0 / decimate=1 / interlaced=0 / bluray_compat=0 / constrained_intra=0 / bframes=3 / b_pyramid=2 / b_adapt=1 / b_bias=0 / direct=1 / weightb=1 / open_gop=0 / weightp=2 / keyint=250 / keyint_min=23 / scenecut=40 / intra_refresh=0 / rc_lookahead=40 / rc=2pass / mbtree=1 / bitrate=8510 / ratetol=1.0 / qcomp=0.60 / qpmin=0 / qpmax=69 / qpstep=4 / cplxblur=20.0 / qblur=0.5 / ip_ratio=1.40 / aq=1:1.00
  25. Default                                  : Yes
  26. Forced                                   : No
  27. Audio #1
  28. ID                                       : 2
  29. Format                                   : AC-3
  30. Format/Info                              : Audio Coding 3
  31. Commercial name                          : Dolby Digital
  32. Codec ID                                 : A_AC3
  33. Duration                                 : 1 h 21 min
  34. Bit rate mode                            : Constant
  35. Bit rate                                 : 448 kb/s
  36. Channel(s)                               : 6 channels
  37. Channel layout                           : L R C LFE Ls Rs
  38. Sampling rate                            : 48.0 kHz
  39. Frame rate                               : 31.250 FPS (1536 SPF)
  40. Bit depth                                : 16 bits
  41. Compression mode                         : Lossy
  42. Stream size                              : 261 MiB (5%)
  43. Language                                 : English
  44. Service kind                             : Complete Main
  45. Default                                  : Yes
  46. Forced                                   : No
  47. Audio #2
  48. ID                                       : 3
  49. Format                                   : AC-3
  50. Format/Info                              : Audio Coding 3
  51. Commercial name                          : Dolby Digital
  52. Codec ID                                 : A_AC3
  53. Duration                                 : 1 h 21 min
  54. Bit rate mode                            : Constant
  55. Bit rate                                 : 640 kb/s
  56. Channel(s)                               : 2 channels
  57. Channel layout                           : L R
  58. Sampling rate                            : 48.0 kHz
  59. Frame rate                               : 31.250 FPS (1536 SPF)
  60. Bit depth                                : 16 bits
  61. Compression mode                         : Lossy
  62. Stream size                              : 373 MiB (7%)
  63. Language                                 : Chinese
  64. Service kind                             : Complete Main
  65. Default                                  : No
  66. Forced                                   : No
  67. Text #1
  68. ID                                       : 4
  69. Format                                   : UTF-8
  70. Codec ID                                 : S_TEXT/UTF8
  71. Codec ID/Info                            : UTF-8 Plain Text
  72. Duration                                 : 58 min 34 s
  73. Bit rate                                 : 0 b/s
  74. Count of elements                        : 7
  75. Stream size                              : 211 Bytes (0%)
  76. Title                                    : forced
  77. Language                                 : English
  78. Default                                  : Yes
  79. Forced                                   : No
  80. Text #2
  81. ID                                       : 5
  82. Format                                   : UTF-8
  83. Codec ID                                 : S_TEXT/UTF8
  84. Codec ID/Info                            : UTF-8 Plain Text
  85. Duration                                 : 1 h 18 min
  86. Bit rate                                 : 29 b/s
  87. Count of elements                        : 588
  88. Stream size                              : 17.0 KiB (0%)
  89. Language                                 : English
  90. Default                                  : No
  91. Forced                                   : No
复制代码






                                       
                                       

                                       
                                       
                                       




回复

使用道具 举报

懒得打字嘛,点击右侧快捷回复 【右侧内容,后台自定义】
您需要登录后才可以回帖 登录 | 立即加入

本版积分规则

Archiver|小黑屋| 蓝光电影网 |网站地图

Copyright © 2021 Comsenz Inc. Powered by 蓝光电影网

蓝光电影网

本站内容由用户自主分享和转载自互联网,转载目的在于传递更多信息,并不代表本网赞同其观点和对其真实性负责。

如有侵权、违反国家法律政策行为,请联系我们,我们会第一时间及时清除和处理!

举报反馈邮箱:[email protected]

快速回复 返回顶部 返回列表