找回密码

蓝光电影网

查看: 20|回复: 0

[剧情] 非分熟女 The.Lady.Improper.2019.CHINESE.1080p.BluRay.REMUX.AVC.DTS-HD.MA.TrueHD.5.1-FGT 21.68GB

[复制链接]
蓝光币
515
发表于 2019-7-30 06:05:56 | 显示全部楼层 |阅读模式


◎译  名 The Lady Improper
◎片  名 非分熟女
◎年  代 2019
◎产  地 香港
◎类  别 剧情 / 情色
◎语  言 粤语
◎上映日期 2019-04-04(香港)
◎IMDb评分  5.6/10 from 57 users
◎IMDb链接  http://www.imdb.com/title/tt9838372
◎豆瓣评分 4.8/10 from 3239 users
◎豆瓣链接 https://movie.douban.com/subject/26752558/
◎片  长 108分钟
◎导  演 曾翠珊 Jessey Tsang Tsui-Shan
◎编  剧 孙逸群 Link Sng / 曾翠珊 Jessey Tsang Tsui-Shan
◎主  演 蔡卓妍 Charlene Choi
      吴慷仁 Kang Ren Wu
      吴浩康 Deep Ng
      叶童 Cecilia Yip
      刘永 Anthony Liu
      林德信 Alex Lam
      谈善言 Hedwig Tam
      何彦桦 Yin-Wah Ho
      太保 Po Tai
      岑珈其 Kaki Sham
      郭奕芯 Ashina Kwok
      张国强 Kwok Keung Cheung

◎标  签 蔡卓妍 | 香港电影 | 香港 | 情色 | 女性 | 2019 | 吴慷仁 | 电影
◎简  介  
  谁也没想到一个成婚五年的熟女却是个童贞。
但最使小曼想不到的是丈夫为此离她而去。在这五年里,小曼一向以为相互早已接管这个究竟,并会海不扬波的把生活过下去。
现在,她的所谓稳定生活被完全打坏。丈夫没了,工作也没了。她回去帮父亲经营他那快被淘汰的餐厅,并请了奥秘厨师家豪坐镇。家豪有一套怪异的厨艺哲学,烹饪的进程如同性爱,履历前戏、飞腾,布满色香味的刺激。家豪的美食让餐厅门庭若市,而他的生活态度亦让小曼窥测出性爱的奥秘。她翻开固有的桎梏,迈出破处的一步,疯狂地摸索更多未知的自己。但怎样的人生才是她期盼的,她并不晓得。家豪分开以后,她决议不再尝试複製家豪的味道,她要自力起来,缔造出自己的独门配方。
◎获奖情况  
  第38届香港电影金像奖(2019)
  最好女配角(提名) 蔡卓妍

  1. Video
  2. ID                                       : 1
  3. Format                                   : AVC
  4. Format/Info                              : Advanced Video Codec
  5. Format profile                           : [email protected]
  6. Format settings                          : CABAC / 4 Ref Frames
  7. Format settings, CABAC                   : Yes
  8. Format settings, Reference frames        : 4 frames
  9. Codec ID                                 : V_MPEG4/ISO/AVC
  10. Duration                                 : 1 h 47 min
  11. Bit rate mode                            : Variable
  12. Bit rate                                 : 21.3 Mb/s
  13. Maximum bit rate                         : 29.0 Mb/s
  14. Width                                    : 1 920 pixels
  15. Height                                   : 1 080 pixels
  16. Display aspect ratio                     : 16:9
  17. Frame rate mode                          : Constant
  18. Frame rate                               : 24.000 FPS
  19. Standard                                 : NTSC
  20. Color space                              : YUV
  21. Chroma subsampling                       : 4:2:0
  22. Bit depth                                : 8 bits
  23. Scan type                                : Progressive
  24. Bits/(Pixel*Frame)                       : 0.428
  25. Stream size                              : 16.0 GiB (74%)
  26. Title                                    : The.Lady.Improper.2019.CHINESE.1080p.BluRay.REMUX.AVC.DTS-HD.MA.TrueHD.5.1-FGT
  27. Language                                 : English
  28. Default                                  : No
  29. Forced                                   : No
  30. Color range                              : Limited
  31. Color primaries                          : BT.709
  32. Transfer characteristics                 : BT.709
  33. Matrix coefficients                      : BT.709
  34. Audio #1
  35. ID                                       : 2
  36. Format                                   : MLP FBA
  37. Format/Info                              : Meridian Lossless Packing FBA
  38. Commercial name                          : Dolby TrueHD
  39. Codec ID                                 : A_TRUEHD
  40. Duration                                 : 1 h 47 min
  41. Bit rate mode                            : Variable
  42. Bit rate                                 : 2 577 kb/s
  43. Maximum bit rate                         : 3 900 kb/s
  44. Channel(s)                               : 6 channels
  45. Channel layout                           : L R C LFE Ls Rs
  46. Sampling rate                            : 96.0 kHz
  47. Frame rate                               : 1 200.000 FPS (80 SPF)
  48. Compression mode                         : Lossless
  49. Stream size                              : 1.94 GiB (9%)
  50. Title                                    : The.Lady.Improper.2019.CHINESE.1080p.BluRay.REMUX.AVC.DTS-HD.MA.TrueHD.5.1-FGT
  51. Language                                 : Chinese
  52. Default                                  : Yes
  53. Forced                                   : No
  54. Audio #2
  55. ID                                       : 3
  56. Format                                   : DTS XLL
  57. Format/Info                              : Digital Theater Systems
  58. Commercial name                          : DTS-HD Master Audio
  59. Codec ID                                 : A_DTS
  60. Duration                                 : 1 h 47 min
  61. Bit rate mode                            : Variable
  62. Bit rate                                 : 4 205 kb/s
  63. Channel(s)                               : 6 channels
  64. Channel layout                           : C L R Ls Rs LFE
  65. Sampling rate                            : 96.0 kHz
  66. Frame rate                               : 187.500 FPS (512 SPF)
  67. Bit depth                                : 24 bits
  68. Compression mode                         : Lossless
  69. Stream size                              : 3.16 GiB (15%)
  70. Title                                    : The.Lady.Improper.2019.CHINESE.1080p.BluRay.REMUX.AVC.DTS-HD.MA.TrueHD.5.1-FGT
  71. Language                                 : Chinese
  72. Default                                  : No
  73. Forced                                   : No
  74. Audio #3
  75. ID                                       : 4
  76. Format                                   : AC-3
  77. Format/Info                              : Audio Coding 3
  78. Commercial name                          : Dolby Digital
  79. Codec ID                                 : A_AC3
  80. Duration                                 : 1 h 47 min
  81. Bit rate mode                            : Constant
  82. Bit rate                                 : 640 kb/s
  83. Channel(s)                               : 6 channels
  84. Channel layout                           : L R C LFE Ls Rs
  85. Sampling rate                            : 48.0 kHz
  86. Frame rate                               : 31.250 FPS (1536 SPF)
  87. Bit depth                                : 16 bits
  88. Compression mode                         : Lossy
  89. Stream size                              : 493 MiB (2%)
  90. Title                                    : The.Lady.Improper.2019.CHINESE.1080p.BluRay.REMUX.AVC.DTS-HD.MA.TrueHD.5.1-FGT
  91. Language                                 : Chinese
  92. Service kind                             : Complete Main
  93. Default                                  : No
  94. Forced                                   : No
  95. Text #1
  96. ID                                       : 5
  97. Format                                   : UTF-8
  98. Codec ID                                 : S_TEXT/UTF8
  99. Codec ID/Info                            : UTF-8 Plain Text
  100. Duration                                 : 1 h 40 min
  101. Bit rate                                 : 32 b/s
  102. Count of elements                        : 881
  103. Stream size                              : 23.9 KiB (0%)
  104. Title                                    : English-SRT
  105. Language                                 : English
  106. Default                                  : Yes
  107. Forced                                   : No
  108. Text #2
  109. ID                                       : 6
  110. Format                                   : PGS
  111. Muxing mode                              : zlib
  112. Codec ID                                 : S_HDMV/PGS
  113. Codec ID/Info                            : Picture based subtitle format used on BDs/HD-DVDs
  114. Duration                                 : 1 h 40 min
  115. Bit rate                                 : 25.7 kb/s
  116. Count of elements                        : 1593
  117. Stream size                              : 18.5 MiB (0%)
  118. Title                                    : English-PGS
  119. Language                                 : English
  120. Default                                  : No
  121. Forced                                   : No
  122. Text #3
  123. ID                                       : 7
  124. Format                                   : PGS
  125. Muxing mode                              : zlib
  126. Codec ID                                 : S_HDMV/PGS
  127. Codec ID/Info                            : Picture based subtitle format used on BDs/HD-DVDs
  128. Duration                                 : 1 h 40 min
  129. Bit rate                                 : 20.0 kb/s
  130. Count of elements                        : 1566
  131. Stream size                              : 14.4 MiB (0%)
  132. Title                                    : Chinese-PGS
  133. Language                                 : Chinese
  134. Default                                  : No
  135. Forced                                   : No
  136. Text #4
  137. ID                                       : 8
  138. Format                                   : PGS
  139. Muxing mode                              : zlib
  140. Codec ID                                 : S_HDMV/PGS
  141. Codec ID/Info                            : Picture based subtitle format used on BDs/HD-DVDs
  142. Duration                                 : 1 h 40 min
  143. Bit rate                                 : 19.5 kb/s
  144. Count of elements                        : 1566
  145. Stream size                              : 14.1 MiB (0%)
  146. Title                                    : Chinese-PGS
  147. Language                                 : Chinese
  148. Default                                  : No
  149. Forced                                   : No
  150. Menu
  151. 00:00:00.000                             : en:Chapter 01
  152. 00:06:02.666                             : en:Chapter 02
  153. 00:17:32.208                             : en:Chapter 03
  154. 00:28:29.250                             : en:Chapter 04
  155. 00:35:11.083                             : en:Chapter 05
  156. 00:44:26.708                             : en:Chapter 06
  157. 00:53:59.875                             : en:Chapter 07
  158. 01:04:46.208                             : en:Chapter 08
  159. 01:16:30.708                             : en:Chapter 09
  160. 01:23:13.666                             : en:Chapter 10
  161. 01:30:47.125                             : en:Chapter 11
  162. 01:39:09.541                             : en:Chapter 12
复制代码






                                       
                                       

                                       
                                       
                                       




回复

使用道具 举报

懒得打字嘛,点击右侧快捷回复 【右侧内容,后台自定义】
您需要登录后才可以回帖 登录 | 立即加入

本版积分规则

Archiver|小黑屋| 蓝光电影网 |网站地图

Copyright © 2021 Comsenz Inc. Powered by 蓝光电影网

蓝光电影网

本站内容由用户自主分享和转载自互联网,转载目的在于传递更多信息,并不代表本网赞同其观点和对其真实性负责。

如有侵权、违反国家法律政策行为,请联系我们,我们会第一时间及时清除和处理!

举报反馈邮箱:[email protected]

快速回复 返回顶部 返回列表