找回密码

蓝光电影网

查看: 15|回复: 0

[其他] 哆啦A梦:新·大雄的日本诞生 Doraemon.the.Movie.Nobita.and.the.Birth.of.Japan.2016.1080p.BluRay.x264.DTS-WiKi 8.67GB

[复制链接]
蓝光币
515
发表于 2020-9-27 08:57:30 | 显示全部楼层 |阅读模式


◎译  名 哆啦A梦:新·大雄的日本诞生
◎片  名 ドラえもん 新?のび太の日本誕生
◎年  代 2016
◎产  地 日本
◎类  别 动画
◎语  言 日语
◎上映日期 2016-03-05(日本) / 2016-07-22(中国大陆)
◎IMDb评分  6.7/10 from 483 users
◎IMDb链接  https://www.imdb.com/title/tt5544700/
◎豆瓣评分 7.3/10 from 37273 users
◎豆瓣链接 https://movie.douban.com/subject/26527993/
◎片  长 104分钟
◎导  演 八锹新之介 Shinnosuke Yakuwa
◎编  剧 八锹新之介 Shinnosuke Yakuwa / 藤子·F·不贰雄 F. Fujio Fujiko
◎主  演 水田山葵 Wasabi Mizuta
       大原惠美 Megumi Oohara
       嘉数由美 Yumi Kakazu
       木村昴 Subaru Kimura
       关智一 Tomokazu Seki
       三石琴乃 Kotono Mitsuishi
       松本保典 Yasunori Matsumoto
       竹内都子 Miyako Takeuchi
       藤本千秋 Chiaki Fujimoto
       白石凉子 Ryoko Shiraishi
       下和田裕贵 Shimowada Hiroki
       伊东美弥子 Itou Miyako
       甲斐田雪 Yuki Kaida
       矢田稔 Minoru Yada
       石井康嗣 K?ji Ishii
       大西健晴 Oonishi Takeharu
       久川绫 Aya Hisakawa
       福井美树 Fukui Miki
       庆长佑香 Keichō Yuka
       武田幸史 Takeda Kouji
       家中宏 Hiroshi Yanaka
       棚桥弘至 Hiroshi Tanahashi
       小岛义雄
       大塚芳忠 H?ch? ?tsuka
       沈念如 Nianru Shen
       佟心竹 Xinzhu Tong
       陈美贞 Chen Meizhen
       林美秀 Angel Lin
       叮当 Sheng Zhang
◎标  签 哆啦A梦 | 动画 | 日本 | 童年回忆 | 戏院版 | 2016 | 冒险 | 二次元
◎简  介


  在家长重重压力下想要离家出走的大雄(大原惠美 配音)、胖虎(木村昴 配音)、小夫(关智一 配音)和静香(嘉数由美 配音),在哆啦A梦(水田山葵 配音)的辅佐下来到了七万年前的地球。在缔造属于自己的世外桃源时,他们偶遇奥秘少年古古儿,继而被卷入了光亮族和黑暗族的部落争斗当中。大师齐心协力智斗巨尊比,不想却发现了一个惊天奥秘……
  1. Video
  2. ID                                       : 1
  3. Format                                   : AVC
  4. Format/Info                              : Advanced Video Codec
  5. Format profile                           : [email protected]
  6. Format settings, CABAC                   : Yes
  7. Format settings, ReFrames                : 4 frames
  8. Codec ID                                 : V_MPEG4/ISO/AVC
  9. Duration                                 : 1h 43mn
  10. Bit rate                                 : 9 892 Kbps
  11. Width                                    : 1 920 pixels
  12. Height                                   : 1 080 pixels
  13. Display aspect ratio                     : 16:9
  14. Frame rate mode                          : Constant
  15. Frame rate                               : 23.976 (24000/1001) fps
  16. Color space                              : YUV
  17. Chroma subsampling                       : 4:2:0
  18. Bit depth                                : 8 bits
  19. Scan type                                : Progressive
  20. Bits/(Pixel*Frame)                       : 0.199
  21. Stream size                              : 7.18 GiB (83%)
  22. Writing library                          : x264 core 129 r2245+704+36 8e61944 tMod+MixAQ [[email protected]:2:0 X86_64]
  23. Encoding settings                        : cabac=1 / ref=4 / deblock=1:-1:-1 / analyse=0x3:0x133 / me=umh / subme=11 / psy=1 / fade_compensate=0.00 / psy_rd=0.60:0.00 / mixed_ref=1 / me_range=64 / chroma_me=1 / trellis=2 / 8x8dct=1 / cqm=0 / deadzone=21,11 / fast_pskip=0 / chroma_qp_offset=-2 / threads=18 / lookahead_threads=3 / sliced_threads=0 / nr=0 / decimate=0 / interlaced=0 / bluray_compat=0 / constrained_intra=0 / fgo=0 / bframes=10 / b_pyramid=2 / b_adapt=2 / b_bias=0 / direct=3 / weightb=1 / open_gop=0 / weightp=2 / keyint=250 / keyint_min=23 / scenecut=40 / intra_refresh=0 / rc=2pass / mbtree=0 / bitrate=9892 / ratetol=1.0 / qcomp=0.70 / qpmin=0 / qpmax=69 / qpstep=4 / cplxblur=20.0 / qblur=0.5 / ip_ratio=1.40 / pb_ratio=1.30 / aq=1 / aq-strength=0.95 / aq-sensitivity=10.00 / aq-ifactor=1.00 / aq-pfactor=1.00 / aq-bfactor=1.00 / aq2=0
  24. Language                                 : Japanese
  25. Default                                  : Yes
  26. Forced                                   : No
  27. Audio #1
  28. ID                                       : 2
  29. Format                                   : DTS
  30. Format/Info                              : Digital Theater Systems
  31. Mode                                     : 16
  32. Format settings, Endianness              : Big
  33. Codec ID                                 : A_DTS
  34. Duration                                 : 1h 43mn
  35. Bit rate mode                            : Constant
  36. Bit rate                                 : 768 Kbps
  37. Channel(s)                               : 6 channels
  38. Channel positions                        : Front: L C R, Side: L R, LFE
  39. Sampling rate                            : 48.0 KHz
  40. Frame rate                               : 93.750 fps (512 spf)
  41. Bit depth                                : 24 bits
  42. Compression mode                         : Lossy
  43. Stream size                              : 571 MiB (6%)
  44. Language                                 : Japanese
  45. Default                                  : Yes
  46. Forced                                   : No
  47. Audio #2
  48. ID                                       : 3
  49. Format                                   : AC-3
  50. Format/Info                              : Audio Coding 3
  51. Mode extension                           : CM (complete main)
  52. Format settings, Endianness              : Big
  53. Codec ID                                 : A_AC3
  54. Duration                                 : 1h 43mn
  55. Bit rate mode                            : Constant
  56. Bit rate                                 : 640 Kbps
  57. Channel(s)                               : 2 channels
  58. Channel positions                        : Front: L R
  59. Sampling rate                            : 48.0 KHz
  60. Frame rate                               : 31.250 fps (1536 spf)
  61. Compression mode                         : Lossy
  62. Stream size                              : 476 MiB (5%)
  63. Title                                    : Mandarin
  64. Language                                 : Chinese
  65. Default                                  : No
  66. Forced                                   : No
  67. Audio #3
  68. ID                                       : 4
  69. Format                                   : AC-3
  70. Format/Info                              : Audio Coding 3
  71. Mode extension                           : CM (complete main)
  72. Format settings, Endianness              : Big
  73. Codec ID                                 : A_AC3
  74. Duration                                 : 1h 43mn
  75. Bit rate mode                            : Constant
  76. Bit rate                                 : 640 Kbps
  77. Channel(s)                               : 6 channels
  78. Channel positions                        : Front: L C R, Side: L R, LFE
  79. Sampling rate                            : 48.0 KHz
  80. Frame rate                               : 31.250 fps (1536 spf)
  81. Compression mode                         : Lossy
  82. Stream size                              : 476 MiB (5%)
  83. Title                                    : Cantonese
  84. Language                                 : Chinese
  85. Default                                  : No
  86. Forced                                   : No
  87. Text #1
  88. ID                                       : 5
  89. Format                                   : UTF-8
  90. Codec ID                                 : S_TEXT/UTF8
  91. Codec ID/Info                            : UTF-8 Plain Text
  92. Duration                                 : 1h 41mn
  93. Bit rate                                 : 51 bps
  94. Count of elements                        : 1747
  95. Stream size                              : 38.6 KiB (0%)
  96. Title                                    : Simplified_TW
  97. Language                                 : Chinese
  98. Default                                  : Yes
  99. Forced                                   : No
  100. Text #2
  101. ID                                       : 6
  102. Format                                   : UTF-8
  103. Codec ID                                 : S_TEXT/UTF8
  104. Codec ID/Info                            : UTF-8 Plain Text
  105. Duration                                 : 1h 41mn
  106. Bit rate                                 : 51 bps
  107. Count of elements                        : 1747
  108. Stream size                              : 38.6 KiB (0%)
  109. Title                                    : Traditional_TW
  110. Language                                 : Chinese
  111. Default                                  : No
  112. Forced                                   : No
  113. Text #3
  114. ID                                       : 7
  115. Format                                   : UTF-8
  116. Codec ID                                 : S_TEXT/UTF8
  117. Codec ID/Info                            : UTF-8 Plain Text
  118. Duration                                 : 1h 41mn
  119. Bit rate                                 : 58 bps
  120. Count of elements                        : 1679
  121. Stream size                              : 43.9 KiB (0%)
  122. Title                                    : Simplified_HK
  123. Language                                 : Chinese
  124. Default                                  : No
  125. Forced                                   : No
  126. Text #4
  127. ID                                       : 8
  128. Format                                   : UTF-8
  129. Codec ID                                 : S_TEXT/UTF8
  130. Codec ID/Info                            : UTF-8 Plain Text
  131. Duration                                 : 1h 41mn
  132. Bit rate                                 : 58 bps
  133. Count of elements                        : 1679
  134. Stream size                              : 43.9 KiB (0%)
  135. Title                                    : Traditional_HK
  136. Language                                 : Chinese
  137. Default                                  : No
  138. Forced                                   : No
  139. Menu
  140. 00:00:00.000                             : en:00:00:00.000
  141. 00:06:36.354                             : en:00:06:36.354
  142. 00:12:37.339                             : en:00:12:37.339
  143. 00:19:48.228                             : en:00:19:48.228
  144. 00:25:09.841                             : en:00:25:09.841
  145. 00:32:52.178                             : en:00:32:52.178
  146. 00:38:53.247                             : en:00:38:53.247
  147. 00:46:18.275                             : en:00:46:18.275
  148. 00:52:57.841                             : en:00:52:57.841
  149. 01:00:53.858                             : en:01:00:53.858
  150. 01:07:13.863                             : en:01:07:13.863
  151. 01:16:09.898                             : en:01:16:09.898
  152. 01:23:44.227                             : en:01:23:44.227
  153. 01:29:44.962                             : en:01:29:44.962
  154. 01:34:36.796                             : en:01:34:36.796
  155. 01:39:17.451                             : en:01:39:17.451
  156. 01:43:18.942                             : en:01:43:18.942
复制代码








                                       
                                       

                                       
                                       
                                       




回复

使用道具 举报

懒得打字嘛,点击右侧快捷回复 【右侧内容,后台自定义】
您需要登录后才可以回帖 登录 | 立即加入

本版积分规则

Archiver|小黑屋| 蓝光电影网 |网站地图

Copyright © 2021 Comsenz Inc. Powered by 蓝光电影网

蓝光电影网

本站内容由用户自主分享和转载自互联网,转载目的在于传递更多信息,并不代表本网赞同其观点和对其真实性负责。

如有侵权、违反国家法律政策行为,请联系我们,我们会第一时间及时清除和处理!

举报反馈邮箱:[email protected]

快速回复 返回顶部 返回列表