找回密码

蓝光电影网

查看: 11|回复: 0

[其他] 讨厌的女人 Desperate.Sunflowers.the.Movie.2016.JAPANESE.1080p.BluRay.x264.DTS-WiKi 9.00GB

[复制链接]
蓝光币
519
发表于 2020-9-27 08:51:32 | 显示全部楼层 |阅读模式


◎译  名 厌恶的女人/Desperate Sunflowers the Movie
◎片  名 嫌な女
◎年  代 2016
◎产  地 日本
◎类  别 悬疑
◎语  言 日语
◎上映日期 2016-06-25(日本)
◎IMDb评分  5.6/10 from 33 users
◎IMDb链接  https://www.imdb.com/title/tt4882930/
◎豆瓣评分 5.8/10 from 749 users
◎豆瓣链接 https://movie.douban.com/subject/26577206/
◎片  长 105分钟
◎导  演 黑木瞳 Hitomi Kuroki
◎编  剧 西田征史 Masafumi Nishida / 桂望实 Nozomi Katsura
◎主  演 吉田羊 Y? Yoshida
       木村佳乃 Yoshino Kimura
       古川雄大 Yuta Furukawa
       袴田吉彦 Yoshihiko Hakamada
       拉沙尔石井 Rasaru Ishii
       黑木瞳 Hitomi Kuroki
       永岛映子 Eiko Nagashima
       织本顺吉 Junkichi Orimoto
       佐佐木希 Nozomi Sasaki
       高田敏江 Toshie Takada
       田中丽奈 Rena Tanaka
       寺田农 Minori Terada
       水石亚飞梦 Atomu Mizuishi
       中村苍 Aoi Nakamura
       孟令军
◎标  签 日本 | 2016 | 女性 | 剧情 | 人性 | 悬疑 | 人生 | 温情
◎简  介


  在某著名律师事务所供职的石田彻子(吉田羊 饰)的生活、奇迹、恋爱顺风逆水,好像童话中的女仆人公一般。谁曾想,平稳的生活由于某小我忽然到来而瞬时逆转。这一天,名叫小谷夏子(木村佳乃 饰)的女人找上门来,希望彻子接手她的诉讼拜托。夏子是彻子亲戚家的孩子,她刚刚和未婚夫消除婚约,并希望彻子帮她讨要相关补偿费。在费了九牛二虎之力处理这桩拜托后,夏子居然不付出任何拜托用度凭空从彻子眼前消失。也许被对方的霉运所传染,彻子随即碰到连续串挫折。先是被丈夫提出仳离,接着工作上状态频出,更加此饱受下属斥责。蹉跎之际,消失的夏子再度出现,她居然恬不知耻地再度请求彻子接管拜托触及代价高达200万日元的梵高名画的拜托……
  
  本片按照桂望实的小说改编。
  1. Video
  2. ID                                       : 1
  3. Format                                   : AVC
  4. Format/Info                              : Advanced Video Codec
  5. Format profile                           : [email protected]
  6. Format settings, CABAC                   : Yes
  7. Format settings, ReFrames                : 4 frames
  8. Codec ID                                 : V_MPEG4/ISO/AVC
  9. Duration                                 : 1h 45mn
  10. Bit rate                                 : 10.7 Mbps
  11. Width                                    : 1 920 pixels
  12. Height                                   : 1 036 pixels
  13. Display aspect ratio                     : 1.85:1
  14. Frame rate mode                          : Constant
  15. Frame rate                               : 23.976 (24000/1001) fps
  16. Color space                              : YUV
  17. Chroma subsampling                       : 4:2:0
  18. Bit depth                                : 8 bits
  19. Scan type                                : Progressive
  20. Bits/(Pixel*Frame)                       : 0.225
  21. Stream size                              : 7.88 GiB (88%)
  22. Writing library                          : x264 core 129 r2245+704+36 8e61944 tMod+MixAQ [[email protected]:2:0 X86_64]
  23. Encoding settings                        : cabac=1 / ref=4 / deblock=1:-3:-3 / analyse=0x3:0x133 / me=umh / subme=11 / psy=1 / fade_compensate=0.00 / psy_rd=1.05:0.10 / mixed_ref=1 / me_range=64 / chroma_me=1 / trellis=2 / 8x8dct=1 / cqm=0 / deadzone=21,11 / fast_pskip=0 / chroma_qp_offset=-3 / threads=18 / lookahead_threads=3 / sliced_threads=0 / nr=0 / decimate=0 / interlaced=0 / bluray_compat=0 / constrained_intra=0 / fgo=0 / bframes=10 / b_pyramid=2 / b_adapt=2 / b_bias=0 / direct=3 / weightb=1 / open_gop=0 / weightp=2 / keyint=250 / keyint_min=23 / scenecut=40 / intra_refresh=0 / rc_lookahead=80 / rc=2pass / mbtree=1 / bitrate=10746 / ratetol=1.0 / qcomp=0.70 / qpmin=0 / qpmax=69 / qpstep=4 / cplxblur=20.0 / qblur=0.5 / ip_ratio=1.40 / aq=1 / aq-strength=0.85 / aq-sensitivity=10.00 / aq-ifactor=1.00 / aq-pfactor=1.00 / aq-bfactor=1.00 / aq2=0
  24. Language                                 : Japanese
  25. Default                                  : Yes
  26. Forced                                   : No
  27. Audio
  28. ID                                       : 2
  29. Format                                   : DTS
  30. Format/Info                              : Digital Theater Systems
  31. Mode                                     : 16
  32. Format settings, Endianness              : Big
  33. Codec ID                                 : A_DTS
  34. Duration                                 : 1h 45mn
  35. Bit rate mode                            : Constant
  36. Bit rate                                 : 1 509 Kbps
  37. Channel(s)                               : 6 channels
  38. Channel positions                        : Front: L C R, Side: L R, LFE
  39. Sampling rate                            : 48.0 KHz
  40. Frame rate                               : 93.750 fps (512 spf)
  41. Bit depth                                : 16 bits
  42. Compression mode                         : Lossy
  43. Stream size                              : 1.11 GiB (12%)
  44. Language                                 : Japanese
  45. Default                                  : Yes
  46. Forced                                   : No
  47. Text
  48. ID                                       : 3
  49. Format                                   : ASS
  50. Codec ID                                 : S_TEXT/ASS
  51. Codec ID/Info                            : Advanced Sub Station Alpha
  52. Duration                                 : 1h 39mn
  53. Bit rate                                 : 88 bps
  54. Count of elements                        : 1281
  55. Compression mode                         : Lossless
  56. Stream size                              : 65.0 KiB (0%)
  57. Language                                 : Chinese
  58. Default                                  : Yes
  59. Forced                                   : No
  60. Menu
  61. 00:00:00.000                             : en:00:00:00.000
  62. 00:08:06.110                             : en:00:08:06.110
  63. 00:20:22.429                             : en:00:20:22.429
  64. 00:29:22.844                             : en:00:29:22.844
  65. 00:40:41.647                             : en:00:40:41.647
  66. 00:49:51.655                             : en:00:49:51.655
  67. 01:02:05.555                             : en:01:02:05.555
  68. 01:12:06.530                             : en:01:12:06.530
  69. 01:23:50.275                             : en:01:23:50.275
  70. 01:34:02.845                             : en:01:34:02.845
复制代码








                                       
                                       

                                       
                                       
                                       




回复

使用道具 举报

懒得打字嘛,点击右侧快捷回复 【右侧内容,后台自定义】
您需要登录后才可以回帖 登录 | 立即加入

本版积分规则

Archiver|小黑屋| 蓝光电影网 |网站地图

Copyright © 2021 Comsenz Inc. Powered by 蓝光电影网

蓝光电影网

本站内容由用户自主分享和转载自互联网,转载目的在于传递更多信息,并不代表本网赞同其观点和对其真实性负责。

如有侵权、违反国家法律政策行为,请联系我们,我们会第一时间及时清除和处理!

举报反馈邮箱:[email protected]

快速回复 返回顶部 返回列表