找回密码

蓝光电影网

查看: 9|回复: 0

[其他] 黑色报告书 Black.Statement.Book.1963.JAPANESE.1080p.BluRay.x264-HANDJOB 7.54GB

[复制链接]
蓝光币
519
发表于 2020-9-26 20:04:39 | 显示全部楼层 |阅读模式


◎译  名 黑色报告书/Kuro no h?kokush?
◎片  名 黒の報告書
◎年  代 1963
◎产  地 日本
◎类  别 悬疑
◎语  言 日语
◎上映日期 1963-01-13
◎IMDb评分  7.6/10 from 27 users
◎IMDb链接  https://www.imdb.com/title/tt0228498/
◎豆瓣评分 /10 from 0 users
◎豆瓣链接 https://movie.douban.com/subject/3169336/
◎片  长 94分钟
◎导  演 增村保造 Yasuzo Masumura
◎编  剧 增村保造 Yasuzo Masumura
◎主  演 小泽荣太郎 Eitar? Ozawa
       叶顺子 Junko Kano
       神山繁 Shigeru K?yama
       高松英郎 Hideo Takamatsu
       宇津井健 Ken Utsui
◎标  签 日本 | 増村保造 | 1960s | 日本电影 | 犯罪 | 悬疑 | 已存 | SFZ
◎简  介


  佐賀潜の江戸川乱歩賞受賞作『華やかな死体』の映画化。若い検事が食品会社社長殺害事务を担任し、悪徳弁護士や集団偽証を向こうにまわし、正義と真実を求めて苦闘する。
  1. Video
  2. ID                                       : 3
  3. Format                                   : AVC
  4. Format/Info                              : Advanced Video Codec
  5. Format profile                           : [email protected]
  6. Format settings                          : CABAC / 5 Ref Frames
  7. Format settings, CABAC                   : Yes
  8. Format settings, Reference frames        : 5 frames
  9. Codec ID                                 : V_MPEG4/ISO/AVC
  10. Duration                                 : 1 h 32 min
  11. Bit rate                                 : 11.6 Mb/s
  12. Width                                    : 1 920 pixels
  13. Height                                   : 814 pixels
  14. Display aspect ratio                     : 2.35:1
  15. Frame rate mode                          : Constant
  16. Frame rate                               : 23.976 (24000/1001/189150) FPS
  17. Color space                              : YUV
  18. Chroma subsampling                       : 4:2:0
  19. Bit depth                                : 8 bits
  20. Scan type                                : Progressive
  21. Bits/(Pixel*Frame)                       : 0.309
  22. Stream size                              : 7.45 GiB (99%)
  23. Writing library                          : x264 core 157 r2935 545de2f
  24. Encoding settings                        : cabac=1 / ref=5 / deblock=1:-3:-3 / analyse=0x3:0x133 / me=umh / subme=10 / psy=1 / psy_rd=1.00:0.00 / mixed_ref=1 / me_range=32 / chroma_me=1 / trellis=2 / 8x8dct=1 / cqm=0 / deadzone=21,11 / fast_pskip=0 / chroma_qp_offset=-2 / threads=12 / lookahead_threads=3 / sliced_threads=0 / nr=0 / decimate=0 / interlaced=0 / bluray_compat=0 / constrained_intra=0 / bframes=10 / b_pyramid=2 / b_adapt=2 / b_bias=0 / direct=3 / weightb=1 / open_gop=0 / weightp=2 / keyint=240 / keyint_min=24 / scenecut=40 / intra_refresh=0 / rc_lookahead=60 / rc=crf / mbtree=0 / crf=19.8 / qcomp=0.60 / qpmin=0 / qpmax=69 / qpstep=4 / vbv_maxrate=62500 / vbv_bufsize=78125 / crf_max=0.0 / nal_hrd=none / filler=0 / ip_ratio=1.40 / pb_ratio=1.30 / aq=2:1.00
  25. Default                                  : Yes
  26. Forced                                   : No
  27. Color range                              : Limited
  28. Color primaries                          : BT.709
  29. Transfer characteristics                 : BT.709
  30. Matrix coefficients                      : BT.709
  31. Audio
  32. ID                                       : 2
  33. Format                                   : AAC LC
  34. Format/Info                              : Advanced Audio Codec Low Complexity
  35. Codec ID                                 : A_AAC-2
  36. Duration                                 : 1 h 32 min
  37. Bit rate                                 : 132 kb/s
  38. Channel(s)                               : 1 channel
  39. Channel layout                           : C
  40. Sampling rate                            : 48.0 kHz
  41. Frame rate                               : 46.875 FPS (1024 SPF)
  42. Compression mode                         : Lossy
  43. Stream size                              : 87.6 MiB (1%)
  44. Language                                 : Japanese
  45. Default                                  : Yes
  46. Forced                                   : No
  47. Text
  48. ID                                       : 1
  49. Format                                   : UTF-8
  50. Codec ID                                 : S_TEXT/UTF8
  51. Codec ID/Info                            : UTF-8 Plain Text
  52. Duration                                 : 1 h 32 min
  53. Bit rate                                 : 65 b/s
  54. Count of elements                        : 1238
  55. Stream size                              : 44.1 KiB (0%)
  56. Language                                 : English
  57. Default                                  : Yes
  58. Forced                                   : No
  59. Menu
  60. 00:00:00.000                             : en:Chapter 1
  61. 00:07:36.706                             : en:Chapter 2
  62. 00:15:28.594                             : en:Chapter 3
  63. 00:22:32.142                             : en:Chapter 4
  64. 00:31:04.363                             : en:Chapter 5
  65. 00:38:05.116                             : en:Chapter 6
  66. 00:43:20.848                             : en:Chapter 7
  67. 00:52:34.818                             : en:Chapter 8
  68. 01:00:49.771                             : en:Chapter 9
  69. 01:11:55.311                             : en:Chapter 10
  70. 01:16:53.150                             : en:Chapter 11
  71. 01:23:53.320                             : en:Chapter 12
复制代码






                                       
                                       

                                       
                                       
                                       




回复

使用道具 举报

懒得打字嘛,点击右侧快捷回复 【右侧内容,后台自定义】
您需要登录后才可以回帖 登录 | 立即加入

本版积分规则

Archiver|小黑屋| 蓝光电影网 |网站地图

Copyright © 2021 Comsenz Inc. Powered by 蓝光电影网

蓝光电影网

本站内容由用户自主分享和转载自互联网,转载目的在于传递更多信息,并不代表本网赞同其观点和对其真实性负责。

如有侵权、违反国家法律政策行为,请联系我们,我们会第一时间及时清除和处理!

举报反馈邮箱:[email protected]

快速回复 返回顶部 返回列表