找回密码

蓝光电影网

查看: 17|回复: 0

[剧情] 良宵苦短/难舍黎明 Hold.Back.the.Dawn.1941.1080p.BluRay.REMUX.AVC.LPCM.1.0-FGT 28.89GB

[复制链接]
蓝光币
515
发表于 2019-7-29 01:15:23 | 显示全部楼层 |阅读模式


◎译  名 良夜苦短 / 难舍拂晓
◎片  名 Hold Back the Dawn
◎年  代 1941
◎产  地 美国
◎类  别 剧情 / 恋爱
◎语  言 英语 / 西班牙语
◎上映日期 1941-09-26(美国)
◎IMDb评分  7.5/10 from 1602 users
◎IMDb链接  http://www.imdb.com/title/tt0033722
◎豆瓣评分 0/10 from 0 users
◎豆瓣链接 https://movie.douban.com/subject/1293277/
◎片  长 116分钟
◎导  演 米切尔·莱森 Mitchell Leisen
◎编  剧 比利·怀尔德 Billy Wilder / 查尔斯·布拉克特 Charles Brackett / 凯蒂·弗林斯 Ketti Frings
◎主  演 查尔斯·博耶 Charles Boyer
      奥利维娅·德哈维兰 Olivia de Havilland
      宝莲·高黛 Paulette Goddard
      Victor Francen

◎标  签 美国 | 恋爱 | OliviaDeHavilland | 1941 | 1940s | BillyWilder | 比利·怀尔德 | CharlesBoyer
◎简  介  
  暂无相关剧情先容
◎获奖情况  
  第14届奥斯卡金像奖(1942)
  最好影片(提名)
  最好女配角(提名) 奥利维娅·德哈维兰
  最好编剧(提名) 比利·怀德 / 查尔斯·布拉克特
  黑白片最好摄影(提名) Leo Tover
  黑白片最好艺术指导和室内布景(提名) 汉斯·德雷尔 / Robert Usher / 萨姆·库默
  剧情片最好配乐(提名) 维克多·杨

  1. Video
  2. ID                                       : 1
  3. Format                                   : AVC
  4. Format/Info                              : Advanced Video Codec
  5. Format profile                           : [email protected]
  6. Format settings                          : CABAC / 3 Ref Frames
  7. Format settings, CABAC                   : Yes
  8. Format settings, Reference frames        : 3 frames
  9. Codec ID                                 : V_MPEG4/ISO/AVC
  10. Duration                                 : 1 h 55 min
  11. Bit rate mode                            : Variable
  12. Bit rate                                 : 30.0 Mb/s
  13. Maximum bit rate                         : 36.0 Mb/s
  14. Width                                    : 1 920 pixels
  15. Height                                   : 1 080 pixels
  16. Display aspect ratio                     : 16:9
  17. Frame rate mode                          : Constant
  18. Frame rate                               : 23.976 (24000/1001) FPS
  19. Color space                              : YUV
  20. Chroma subsampling                       : 4:2:0
  21. Bit depth                                : 8 bits
  22. Scan type                                : Progressive
  23. Bits/(Pixel*Frame)                       : 0.603
  24. Stream size                              : 24.2 GiB (84%)
  25. Title                                    : Hold.Back.the.Dawn.1941.1080p.BluRay.REMUX.AVC.LPCM.1.0-FGT
  26. Writing library                          : x264 core 157 r2935 545de2f
  27. Encoding settings                        : cabac=1 / ref=4 / deblock=1:0:0 / analyse=0x3:0x133 / me=umh / subme=10 / psy=1 / psy_rd=1.00:0.15 / mixed_ref=1 / me_range=24 / chroma_me=1 / trellis=2 / 8x8dct=1 / cqm=0 / deadzone=21,11 / fast_pskip=1 / chroma_qp_offset=-3 / threads=18 / lookahead_threads=1 / sliced_threads=0 / slices=4 / nr=0 / decimate=1 / interlaced=0 / bluray_compat=1 / constrained_intra=0 / bframes=3 / b_pyramid=1 / b_adapt=2 / b_bias=0 / direct=3 / weightb=1 / open_gop=1 / weightp=1 / keyint=24 / keyint_min=1 / scenecut=40 / intra_refresh=0 / rc_lookahead=24 / rc=2pass / mbtree=1 / bitrate=30000 / ratetol=0.1 / qcomp=0.00 / qpmin=0 / qpmax=69 / qpstep=4 / cplxblur=20.0 / qblur=0.5 / vbv_maxrate=36000 / vbv_bufsize=30000 / nal_hrd=vbr / filler=0 / ip_ratio=1.40 / aq=1:1.00
  28. Language                                 : English
  29. Default                                  : No
  30. Forced                                   : No
  31. Color range                              : Limited
  32. Color primaries                          : BT.709
  33. Transfer characteristics                 : BT.709
  34. Matrix coefficients                      : BT.709
  35. Audio #1
  36. ID                                       : 2
  37. Format                                   : PCM
  38. Format settings                          : Little / Signed
  39. Codec ID                                 : A_PCM/INT/LIT
  40. Duration                                 : 1 h 55 min
  41. Bit rate mode                            : Constant
  42. Bit rate                                 : 1 152 kb/s
  43. Sampling rate                            : 48.0 kHz
  44. Frame rate                               : 30.000 FPS (1600 SPF)
  45. Bit depth                                : 24 bits
  46. Stream size                              : 954 MiB (3%)
  47. Title                                    : Hold.Back.the.Dawn.1941.1080p.BluRay.REMUX.AVC.LPCM.1.0-FGT
  48. Language                                 : English
  49. Default                                  : Yes
  50. Forced                                   : No
  51. Audio #2
  52. ID                                       : 3
  53. Format                                   : PCM
  54. Format settings                          : Little / Signed
  55. Codec ID                                 : A_PCM/INT/LIT
  56. Duration                                 : 1 h 55 min
  57. Bit rate mode                            : Constant
  58. Bit rate                                 : 2 304 kb/s
  59. Channel(s)                               : 2 channels
  60. Sampling rate                            : 48.0 kHz
  61. Frame rate                               : 30.000 FPS (1600 SPF)
  62. Bit depth                                : 24 bits
  63. Stream size                              : 1.86 GiB (6%)
  64. Title                                    : Hold.Back.the.Dawn.1941.1080p.BluRay.REMUX.AVC.LPCM.1.0-FGT
  65. Language                                 : English
  66. Default                                  : No
  67. Forced                                   : No
  68. Audio #3
  69. ID                                       : 4
  70. Format                                   : PCM
  71. Format settings                          : Little / Signed
  72. Codec ID                                 : A_PCM/INT/LIT
  73. Duration                                 : 1 h 55 min
  74. Bit rate mode                            : Constant
  75. Bit rate                                 : 1 152 kb/s
  76. Sampling rate                            : 48.0 kHz
  77. Frame rate                               : 30.000 FPS (1600 SPF)
  78. Bit depth                                : 24 bits
  79. Stream size                              : 954 MiB (3%)
  80. Title                                    : Hold.Back.the.Dawn.1941.1080p.BluRay.REMUX.AVC.LPCM.1.0-FGT
  81. Language                                 : English
  82. Default                                  : No
  83. Forced                                   : No
  84. Audio #4
  85. ID                                       : 5
  86. Format                                   : PCM
  87. Format settings                          : Little / Signed
  88. Codec ID                                 : A_PCM/INT/LIT
  89. Duration                                 : 1 h 55 min
  90. Bit rate mode                            : Constant
  91. Bit rate                                 : 1 152 kb/s
  92. Sampling rate                            : 48.0 kHz
  93. Frame rate                               : 30.000 FPS (1600 SPF)
  94. Bit depth                                : 24 bits
  95. Stream size                              : 954 MiB (3%)
  96. Title                                    : Hold.Back.the.Dawn.1941.1080p.BluRay.REMUX.AVC.LPCM.1.0-FGT
  97. Language                                 : English
  98. Default                                  : No
  99. Forced                                   : No
  100. Text
  101. ID                                       : 6
  102. Format                                   : PGS
  103. Muxing mode                              : zlib
  104. Codec ID                                 : S_HDMV/PGS
  105. Codec ID/Info                            : Picture based subtitle format used on BDs/HD-DVDs
  106. Duration                                 : 1 h 53 min
  107. Bit rate                                 : 43.7 kb/s
  108. Count of elements                        : 3558
  109. Stream size                              : 35.5 MiB (0%)
  110. Title                                    : English-PGS
  111. Language                                 : English
  112. Default                                  : Yes
  113. Forced                                   : No
  114. Menu
  115. 00:00:00.000                             : en:Chapter 01
  116. 00:09:36.242                             : en:Chapter 02
  117. 00:19:50.355                             : en:Chapter 03
  118. 00:29:55.835                             : en:Chapter 04
  119. 00:41:00.666                             : en:Chapter 05
  120. 00:48:30.032                             : en:Chapter 06
  121. 00:57:39.205                             : en:Chapter 07
  122. 01:06:45.459                             : en:Chapter 08
  123. 01:16:27.416                             : en:Chapter 09
  124. 01:28:13.454                             : en:Chapter 10
  125. 01:38:28.819                             : en:Chapter 11
  126. 01:48:07.689                             : en:Chapter 12
复制代码






                                       
                                       

                                       
                                       
                                       




回复

使用道具 举报

懒得打字嘛,点击右侧快捷回复 【右侧内容,后台自定义】
您需要登录后才可以回帖 登录 | 立即加入

本版积分规则

Archiver|小黑屋| 蓝光电影网 |网站地图

Copyright © 2021 Comsenz Inc. Powered by 蓝光电影网

蓝光电影网

本站内容由用户自主分享和转载自互联网,转载目的在于传递更多信息,并不代表本网赞同其观点和对其真实性负责。

如有侵权、违反国家法律政策行为,请联系我们,我们会第一时间及时清除和处理!

举报反馈邮箱:[email protected]

快速回复 返回顶部 返回列表