找回密码

蓝光电影网

查看: 6|回复: 0

[动作] 战龙哥斯拉之三大怪兽/四大怪兽地球大决战 Ghidorah.The.Three-Headed.Monster.1964.JAPANESE.1080p.BluRay.x264.DTS-FGT 8.45GB

[复制链接]
蓝光币
515
发表于 2019-8-15 06:04:13 | 显示全部楼层 |阅读模式


◎译  名 战龙哥斯拉之三大怪兽 / 四大怪兽地球大决战
◎片  名 三大怪獣 地球最大の決戦
◎年  代 1964
◎产  地 日本
◎类  别 行动 / 科幻 / 奇异
◎语  言 日语
◎上映日期 1964-12-20
◎IMDb评分  6.6/10 from 4544 users
◎IMDb链接  http://www.imdb.com/title/tt0058544
◎豆瓣评分 6.4/10 from 239 users
◎豆瓣链接 https://movie.douban.com/subject/2059285/
◎片  长 92 分钟
◎导  演 本多猪四郎  Ishir? Honda
◎编  剧 関沢新一
◎主  演 志村乔 Takashi Shimura
       夏木阳介 Yosuke Natsuki
       星由里子 Yuriko Hoshi
       小泉博 Hiroshi Koizumi

◎标  签 日本 | 哥斯拉 | 科幻 | 特摄 | 本多猪四郎 | 电影 | 日本电影 | 魔斯拉
◎简  介  
  沙魯奈公主乘機前昔日本途中,飛機忽然爆炸,唯公主一人得以保存並下降地球,可是其意識轉為有預言才能的金星人,這金星人的使命就是要拯救將要滅亡的地球,金星的文化科學被宇宙怪獸 奇古度拉破壞淨盡,奇古度拉的下一目標就是地球,可是地球怪獸哥斯拉跟拿頓卻相互冤仇,並沒有助人類的筹算,魔斯拉惟有出動苦勸,望說服牠兩對抗奇古度拉。
  1. Video
  2. ID                                       : 1
  3. Format                                   : AVC
  4. Format/Info                              : Advanced Video Codec
  5. Format profile                           : [email protected]
  6. Format settings                          : CABAC / 4 Ref Frames
  7. Format settings, CABAC                   : Yes
  8. Format settings, Reference frames        : 4 frames
  9. Codec ID                                 : V_MPEG4/ISO/AVC
  10. Duration                                 : 1 h 33 min
  11. Bit rate                                 : 11.5 Mb/s
  12. Width                                    : 1 920 pixels
  13. Height                                   : 816 pixels
  14. Display aspect ratio                     : 2.35:1
  15. Frame rate mode                          : Constant
  16. Frame rate                               : 23.976 (24000/1001) FPS
  17. Color space                              : YUV
  18. Chroma subsampling                       : 4:2:0
  19. Bit depth                                : 8 bits
  20. Scan type                                : Progressive
  21. Bits/(Pixel*Frame)                       : 0.306
  22. Stream size                              : 7.47 GiB (88%)
  23. Title                                    : Ghidorah.The.Three-Headed.Monster.1964.JAPANESE.1080p.BluRay.x264.DTS-FGT
  24. Writing library                          : x264 core 148 r2795M aaa9aa8
  25. Encoding settings                        : cabac=1 / ref=4 / deblock=1:-2:-2 / analyse=0x3:0x113 / me=umh / subme=9 / psy=1 / psy_rd=1.00:0.15 / mixed_ref=1 / me_range=16 / chroma_me=1 / trellis=2 / 8x8dct=1 / cqm=0 / deadzone=21,11 / fast_pskip=1 / chroma_qp_offset=-3 / threads=24 / lookahead_threads=3 / sliced_threads=0 / nr=0 / decimate=1 / interlaced=0 / bluray_compat=0 / constrained_intra=0 / bframes=3 / b_pyramid=2 / b_adapt=1 / b_bias=0 / direct=3 / weightb=1 / open_gop=0 / weightp=2 / keyint=250 / keyint_min=25 / scenecut=40 / intra_refresh=0 / rc_lookahead=50 / rc=2pass / mbtree=1 / bitrate=11500 / ratetol=1.0 / qcomp=0.60 / qpmin=0 / qpmax=69 / qpstep=4 / cplxblur=20.0 / qblur=0.5 / vbv_maxrate=31250 / vbv_bufsize=31250 / nal_hrd=none / filler=0 / ip_ratio=1.40 / aq=1:1.00
  26. Language                                 : Japanese
  27. Default                                  : Yes
  28. Forced                                   : No
  29. Audio
  30. ID                                       : 2
  31. Format                                   : DTS
  32. Format/Info                              : Digital Theater Systems
  33. Codec ID                                 : A_DTS
  34. Duration                                 : 1 h 33 min
  35. Bit rate mode                            : Constant
  36. Bit rate                                 : 1 509 kb/s
  37. Channel(s)                               : 2 channels
  38. Channel layout                           : L R
  39. Sampling rate                            : 48.0 kHz
  40. Frame rate                               : 93.750 FPS (512 SPF)
  41. Bit depth                                : 16 bits
  42. Compression mode                         : Lossy
  43. Stream size                              : 1 004 MiB (12%)
  44. Title                                    : Ghidorah.The.Three-Headed.Monster.1964.JAPANESE.1080p.BluRay.x264.DTS-FGT
  45. Language                                 : Japanese
  46. Default                                  : Yes
  47. Forced                                   : No
  48. Text
  49. ID                                       : 3
  50. Format                                   : UTF-8
  51. Codec ID                                 : S_TEXT/UTF8
  52. Codec ID/Info                            : UTF-8 Plain Text
  53. Duration                                 : 1 h 32 min
  54. Bit rate                                 : 33 b/s
  55. Count of elements                        : 716
  56. Stream size                              : 22.8 KiB (0%)
  57. Language                                 : English
  58. Default                                  : Yes
  59. Forced                                   : No
  60. Menu
  61. 00:00:00.000                             : en:Chapter 1
  62. 00:01:34.636                             : en:Chapter 2
  63. 00:06:01.819                             : en:Chapter 3
  64. 00:13:19.882                             : en:Chapter 4
  65. 00:17:25.919                             : en:Chapter 5
  66. 00:19:40.429                             : en:Chapter 6
  67. 00:22:40.609                             : en:Chapter 7
  68. 00:29:15.503                             : en:Chapter 8
  69. 00:32:33.785                             : en:Chapter 9
  70. 00:37:21.072                             : en:Chapter 10
  71. 00:39:07.094                             : en:Chapter 11
  72. 00:42:06.649                             : en:Chapter 12
  73. 00:46:12.352                             : en:Chapter 13
  74. 00:49:10.447                             : en:Chapter 14
  75. 00:52:09.751                             : en:Chapter 15
  76. 00:58:32.926                             : en:Chapter 16
  77. 01:00:28.124                             : en:Chapter 17
  78. 01:07:28.127                             : en:Chapter 18
  79. 01:12:34.058                             : en:Chapter 19
  80. 01:16:13.318                             : en:Chapter 20
  81. 01:19:55.916                             : en:Chapter 21
  82. 01:22:43.249                             : en:Chapter 22
  83. 01:25:45.557                             : en:Chapter 23
  84. 01:29:59.977                             : en:Chapter 24
复制代码






                                       
                                       

                                       
                                       
                                       




回复

使用道具 举报

懒得打字嘛,点击右侧快捷回复 【右侧内容,后台自定义】
您需要登录后才可以回帖 登录 | 立即加入

本版积分规则

Archiver|小黑屋| 蓝光电影网 |网站地图

Copyright © 2021 Comsenz Inc. Powered by 蓝光电影网

蓝光电影网

本站内容由用户自主分享和转载自互联网,转载目的在于传递更多信息,并不代表本网赞同其观点和对其真实性负责。

如有侵权、违反国家法律政策行为,请联系我们,我们会第一时间及时清除和处理!

举报反馈邮箱:[email protected]

快速回复 返回顶部 返回列表