找回密码

蓝光电影网

查看: 14|回复: 0

[喜剧] 意大利制造 Made.in.Italy.2020.1080p.BluRay.x264.DTS-MT 16.93GB

[复制链接]
蓝光币
515
发表于 2020-11-26 19:25:37 | 显示全部楼层 |阅读模式


◎译  名 意大利制造/The Long Way Round/下一站,托斯卡尼(台)
◎片  名 Made in Italy
◎年  代 2020
◎产  地 英国,意大利
◎类  别 笑剧
◎语  言 英语
◎上映日期 2020-07-09(希腊) / 2020-08-07(美国)
◎IMDb评分  5.7/10 from 2420 users
◎IMDb链接  https://www.imdb.com/title/tt9207700/
◎豆瓣评分 6.6/10 from 776 users
◎豆瓣链接 https://movie.douban.com/subject/27175453/
◎片  长 94分钟
◎导  演 詹姆斯·达西 James D'Arcy
◎编  剧 詹姆斯·达西 James D'Arcy
◎主  演 尤兰达·凯罗 Yolanda Kettle
       米切尔·理查德森 Micheál Richardson
       舒雅德·法瑞斯 Souad Faress
       连姆·尼森 Liam Neeson
       克莱尔·戴森 Claire Dyson
       琳赛·邓肯 Lindsay Duncan
       瓦莱丽亚·比莱洛 Valeria Bilello
       海伦娜·安东尼奥 Helena Antonio
       拉维尼亚·比亚吉 Lavinia Biagi
       加布里埃尔·托兹 Gabriele Tozzi
       马克·夸利亚 Marco Quaglia
       吉安·马可·塔瓦尼 Gian Marco Tavani
       科斯坦扎·阿马蒂 Costanza Amati
       艾琳·沃尔什 Eileen Walsh
       弗拉米妮亚·辛克 Flaminia Cinque
       朱利安·欧文登 Julian Ovenden
◎标  签 意大利 | 英国 | 父子 | 文艺 | 亲情 | 剧情 | 2020 | 家庭
◎简  介


  一位画家(连姆·尼森 Liam Neeson 饰),带着他关系冷淡的儿子(米切尔·理查德森 Micheál Richardson 饰),两人从伦敦返回义大利,想出售已故妻子多年前一路生活过的屋子。不外这栋屋子年久失修,客厅墙壁还有一大片难以了解的彩绘,致使完全没人想买下这栋屋子。两人只好试图与当地居民,一同应用手边唯一的工具,起头修缮这栋老旧衡宇。同时,这对父子也没想到,当他们放下忙碌生活,来到义大利托斯卡纳乡下,似乎也起头找到属于他们的未来……
  1. Video
  2. ID                                       : 1
  3. Format                                   : AVC
  4. Format/Info                              : Advanced Video Codec
  5. Format profile                           : [email protected]
  6. Format settings                          : CABAC / 4 Ref Frames
  7. Format settings, CABAC                   : Yes
  8. Format settings, Reference frames        : 4 frames
  9. Codec ID                                 : V_MPEG4/ISO/AVC
  10. Duration                                 : 1 h 33 min
  11. Bit rate                                 : 24.4 Mb/s
  12. Width                                    : 1 920 pixels
  13. Height                                   : 1 040 pixels
  14. Display aspect ratio                     : 1.85:1
  15. Frame rate mode                          : Constant
  16. Frame rate                               : 23.976 (24000/1001/189150) FPS
  17. Color space                              : YUV
  18. Chroma subsampling                       : 4:2:0
  19. Bit depth                                : 8 bits
  20. Scan type                                : Progressive
  21. Bits/(Pixel*Frame)                       : 0.509
  22. Stream size                              : 15.9 GiB (94%)
  23. Writing library                          : x264 core 157 r2938 2b00a84 [email protected] Mod
  24. Encoding settings                        : cabac=1 / ref=4 / deblock=1:-3:-3 / analyse=0x3:0x133 / me=umh / subme=10 / psy=1 / psy_rd=1.05:0.00 / mixed_ref=1 / me_range=32 / chroma_me=1 / trellis=2 / 8x8dct=1 / cqm=0 / deadzone=21,11 / fast_pskip=0 / chroma_qp_offset=-2 / threads=12 / lookahead_threads=2 / sliced_threads=0 / nr=0 / decimate=0 / interlaced=0 / bluray_compat=0 / constrained_intra=0 / bframes=8 / b_pyramid=2 / b_adapt=2 / b_bias=0 / direct=3 / weightb=1 / open_gop=0 / weightp=2 / keyint=250 / keyint_min=24 / scenecut=40 / intra_refresh=0 / rc_lookahead=250 / rc=crf / mbtree=0 / crf=16.8 / qcomp=0.60 / qpmin=0 / qpmax=69 / qpstep=4 / vbv_maxrate=62500 / vbv_bufsize=78125 / crf_max=0.0 / nal_hrd=none / filler=0 / ip_ratio=1.30 / pb_ratio=1.20 / aq=3:0.80
  25. Language                                 : English
  26. Default                                  : Yes
  27. Forced                                   : No
  28. Color range                              : Limited
  29. Color primaries                          : BT.709
  30. Matrix coefficients                      : BT.709
  31. Audio
  32. ID                                       : 2
  33. Format                                   : DTS
  34. Format/Info                              : Digital Theater Systems
  35. Codec ID                                 : A_DTS
  36. Duration                                 : 1 h 33 min
  37. Bit rate mode                            : Constant
  38. Bit rate                                 : 1 509 kb/s
  39. Channel(s)                               : 6 channels
  40. Channel layout                           : C L R Ls Rs LFE
  41. Sampling rate                            : 48.0 kHz
  42. Frame rate                               : 93.750 FPS (512 SPF)
  43. Bit depth                                : 24 bits
  44. Compression mode                         : Lossy
  45. Stream size                              : 1 012 MiB (6%)
  46. Language                                 : English
  47. Default                                  : Yes
  48. Forced                                   : No
  49. Text
  50. ID                                       : 3
  51. Format                                   : UTF-8
  52. Codec ID                                 : S_TEXT/UTF8
  53. Codec ID/Info                            : UTF-8 Plain Text
  54. Duration                                 : 1 h 26 min
  55. Bit rate                                 : 40 b/s
  56. Count of elements                        : 998
  57. Stream size                              : 26.0 KiB (0%)
  58. Language                                 : English
  59. Default                                  : Yes
  60. Forced                                   : No
  61. Menu
  62. 00:00:00.000                             : en:Chapter 01
  63. 00:07:03.131                             : en:Chapter 02
  64. 00:14:18.649                             : en:Chapter 03
  65. 00:21:22.656                             : en:Chapter 04
  66. 00:29:05.619                             : en:Chapter 05
  67. 00:36:19.302                             : en:Chapter 06
  68. 00:45:35.024                             : en:Chapter 07
  69. 00:53:34.753                             : en:Chapter 08
  70. 01:01:33.148                             : en:Chapter 09
  71. 01:05:40.895                             : en:Chapter 10
  72. 01:14:44.105                             : en:Chapter 11
  73. 01:19:55.207                             : en:Chapter 12
复制代码






                                       
                                       

                                       
                                       
                                       




回复

使用道具 举报

懒得打字嘛,点击右侧快捷回复 【右侧内容,后台自定义】
您需要登录后才可以回帖 登录 | 立即加入

本版积分规则

Archiver|小黑屋| 蓝光电影网 |网站地图

Copyright © 2021 Comsenz Inc. Powered by 蓝光电影网

蓝光电影网

本站内容由用户自主分享和转载自互联网,转载目的在于传递更多信息,并不代表本网赞同其观点和对其真实性负责。

如有侵权、违反国家法律政策行为,请联系我们,我们会第一时间及时清除和处理!

举报反馈邮箱:[email protected]

快速回复 返回顶部 返回列表