找回密码

蓝光电影网

查看: 24|回复: 0

[剧情] 终点到达 Then.Came.You.2018.1080p.BluRay.REMUX.AVC.DTS-HD.MA.5.1-FGT 16.89GB

[复制链接]
蓝光币
519
发表于 2019-7-29 01:11:38 | 显示全部楼层 |阅读模式


◎译  名 尽头到达 / Arrivals / Departures / 然后你来了 / 真爱,再动身(台)
◎片  名 Then Came You
◎年  代 2018
◎产  地 美国
◎类  别 剧情 / 笑剧 / 冒险
◎语  言 英语
◎上映日期 2018-10-12(伍德斯托克电影节) / 2019-02-01(美国)
◎IMDb评分  7.0/10 from 4766 users
◎IMDb链接  http://www.imdb.com/title/tt4859168
◎豆瓣评分 7.5/10 from 3576 users
◎豆瓣链接 https://movie.douban.com/subject/26649687/
◎片  长 97分钟
◎导  演 Peter Hutchings
◎编  剧 Fergal Rock
◎主  演 阿萨·巴特菲尔德 Asa Butterfield
      麦茜·威廉姆斯 Maisie Williams
      妮娜·杜波夫 Nina Dobrev
      佩顿·李斯特 Peyton R. List
      泰勒·霍奇林 Tyler Hoechlin
      郑肯 Ken Jeong
      索尼亚·瓦格尔 Sonya Walger
      大卫·科恩查内 David Koechner
      泰塔斯·伯吉斯 Tituss Burgess
      马格特·宾汉 Margot Bingham
      科林·莫斯 Colin Moss
      罗丝玛丽·霍华德 Rosemary Howard
      布丽亚娜·范思克思 Briana Venskus

◎标  签 青春 | 美国 | 温情 | 长大 | 恋爱 | 灭亡 | 剧情 | 2019
◎简  介  
  影片故事报告挣扎在灭亡边沿的斯凯(麦茜饰)和加尔文(阿萨饰)成为朋友,加尔文欲帮助斯凯完成她的愿望。在此时代,加尔文认清自己心里,一样还有萌动的恋爱。
  1. Video
  2. ID                                       : 1
  3. Format                                   : AVC
  4. Format/Info                              : Advanced Video Codec
  5. Format profile                           : [email protected]
  6. Format settings                          : CABAC / 4 Ref Frames
  7. Format settings, CABAC                   : Yes
  8. Format settings, Reference frames        : 4 frames
  9. Codec ID                                 : V_MPEG4/ISO/AVC
  10. Duration                                 : 1 h 37 min
  11. Bit rate mode                            : Variable
  12. Bit rate                                 : 23.0 Mb/s
  13. Maximum bit rate                         : 34.0 Mb/s
  14. Width                                    : 1 920 pixels
  15. Height                                   : 1 080 pixels
  16. Display aspect ratio                     : 16:9
  17. Frame rate mode                          : Constant
  18. Frame rate                               : 23.976 (24000/1001) FPS
  19. Standard                                 : NTSC
  20. Color space                              : YUV
  21. Chroma subsampling                       : 4:2:0
  22. Bit depth                                : 8 bits
  23. Scan type                                : Progressive
  24. Bits/(Pixel*Frame)                       : 0.462
  25. Stream size                              : 15.6 GiB (92%)
  26. Title                                    : Then.Came.You.2018.1080p.BluRay.REMUX.AVC.DTS-HD.MA.5.1-FGT
  27. Language                                 : English
  28. Default                                  : No
  29. Forced                                   : No
  30. Color range                              : Limited
  31. Color primaries                          : BT.709
  32. Transfer characteristics                 : BT.709
  33. Matrix coefficients                      : BT.709
  34. Audio
  35. ID                                       : 2
  36. Format                                   : DTS XLL
  37. Format/Info                              : Digital Theater Systems
  38. Commercial name                          : DTS-HD Master Audio
  39. Codec ID                                 : A_DTS
  40. Duration                                 : 1 h 37 min
  41. Bit rate mode                            : Variable
  42. Bit rate                                 : 1 867 kb/s
  43. Channel(s)                               : 6 channels
  44. Channel layout                           : C L R Ls Rs LFE
  45. Sampling rate                            : 48.0 kHz
  46. Frame rate                               : 93.750 FPS (512 SPF)
  47. Bit depth                                : 16 bits
  48. Compression mode                         : Lossless
  49. Stream size                              : 1.27 GiB (8%)
  50. Title                                    : Then.Came.You.2018.1080p.BluRay.REMUX.AVC.DTS-HD.MA.5.1-FGT
  51. Language                                 : English
  52. Default                                  : Yes
  53. Forced                                   : No
  54. Text
  55. ID                                       : 3
  56. Format                                   : PGS
  57. Muxing mode                              : zlib
  58. Codec ID                                 : S_HDMV/PGS
  59. Codec ID/Info                            : Picture based subtitle format used on BDs/HD-DVDs
  60. Duration                                 : 1 h 2 min
  61. Bit rate                                 : 444 b/s
  62. Count of elements                        : 38
  63. Stream size                              : 204 KiB (0%)
  64. Title                                    : English-PGS
  65. Language                                 : English
  66. Default                                  : Yes
  67. Forced                                   : No
  68. Menu
  69. 00:00:00.000                             : en:Chapter 01
  70. 00:09:29.068                             : en:Chapter 02
  71. 00:16:20.062                             : en:Chapter 03
  72. 00:24:07.946                             : en:Chapter 04
  73. 00:31:56.873                             : en:Chapter 05
  74. 00:38:56.917                             : en:Chapter 06
  75. 00:48:15.017                             : en:Chapter 07
  76. 00:56:56.079                             : en:Chapter 08
  77. 01:04:34.287                             : en:Chapter 09
  78. 01:12:32.848                             : en:Chapter 10
  79. 01:20:13.975                             : en:Chapter 11
  80. 01:30:58.744                             : en:Chapter 12
复制代码






                                       
                                       

                                       
                                       
                                       




回复

使用道具 举报

懒得打字嘛,点击右侧快捷回复 【右侧内容,后台自定义】
您需要登录后才可以回帖 登录 | 立即加入

本版积分规则

Archiver|小黑屋| 蓝光电影网 |网站地图

Copyright © 2021 Comsenz Inc. Powered by 蓝光电影网

蓝光电影网

本站内容由用户自主分享和转载自互联网,转载目的在于传递更多信息,并不代表本网赞同其观点和对其真实性负责。

如有侵权、违反国家法律政策行为,请联系我们,我们会第一时间及时清除和处理!

举报反馈邮箱:[email protected]

快速回复 返回顶部 返回列表