找回密码

蓝光电影网

查看: 18|回复: 0

[动作] 哥斯拉X摩斯拉X机械哥斯拉:东京SOS/哥吉拉东京SOS Godzilla.Tokyo.S.O.S.2003.1080p.BluRay.x264-WaLMaRT 7.95GB

[复制链接]
蓝光币
515
发表于 2019-8-15 03:51:33 | 显示全部楼层 |阅读模式


◎译  名 哥斯拉X摩斯拉X机械哥斯拉:东京SOS / 哥吉拉东京SOS
◎片  名 ゴジラ×モスラ×メカゴジラ 東京SOS
◎年  代 2003
◎产  地 日本
◎类  别 行动 / 科幻 / 惊悚 / 可骇 / 奇异
◎语  言 日语 / 英语
◎上映日期 2003-12-13
◎IMDb评分  6.6/10 from 3246 users
◎IMDb链接  http://www.imdb.com/title/tt0366526
◎豆瓣评分 6.2/10 from 407 users
◎豆瓣链接 https://movie.douban.com/subject/1808436/
◎片  长 91 分钟
◎导  演 手塚昌明
◎编  剧 手塚昌明 Masaaki Tezuka / 横谷昌宏 Masahiro Yokotani
◎主  演 金子昇、虎牙光輝
       小泉博、大塚ちひろ
       長澤まさみ

◎标  签 哥斯拉X摩斯拉X机械哥斯拉:东京SOS | 日本 | 科幻 | 怪兽 | 日本电影 | 哥斯拉 | 特摄 | 2003
◎简  介  
  接續前作“哥吉拉X機械哥吉拉”的故事,一年前與哥吉拉(Godzilla)的決戰,機龍(機械哥吉拉Mechagodzilla)受損水平37%,落空了右腕及終極兵器-絕對零度炮。
  維修組員中條義人在八王子基地負責修復機龍的工作。某日中條在他叔叔信一的別墅家渡假時,嬰兒島的小美人精靈居然出現在他們眼前。小美人給他們一個忠言:人類用哥吉拉骸骨製造出機龍是個嚴重的錯誤,假如出動機龍,摩斯拉就會變成人類的敵人。於是信一設法說服老友也是身為總理大臣的五十嵐,希望能中断機龍的計劃。但就在此時,承平洋又出現哥吉拉的影蹤…
  2004年是哥吉拉登上大銀幕的50週年,上一部作品“哥吉拉X機械哥吉拉”中,以1954年第一代哥吉拉的骨骸做成的機龍初次登場,與哥吉拉展開熾熱的戰鬥。在這次,哥吉拉同類的戰爭終於接近尾聲。關鍵就在曾經襲擊過東京的摩斯拉與嬰兒島的小美人。一向守護著摩斯拉與小美人的語言學者中條信一,將這個任務交棒給他在機龍維修隊任職的外甥義人,或許能感遭到哥吉拉系列電影的歷史承傳吧!
  關於出色的戰鬥場面,象徵東京的名勝如國會議事堂與東京鐵塔等都被如數破壞,與之前的作品相較其迫力有過之而無不及。殊效方面更不在話下,電影裡人與人之間的豪情關連也是值得一看的地方。義人內心的糾葛,與操纵員之間的對立等等複雜的豪情也有許多深入描寫。
  1. Video
  2. ID                                       : 1
  3. Format                                   : AVC
  4. Format/Info                              : Advanced Video Codec
  5. Format profile                           : [email protected]
  6. Format settings, CABAC                   : Yes
  7. Format settings, ReFrames                : 5 frames
  8. Codec ID                                 : V_MPEG4/ISO/AVC
  9. Duration                                 : 1h 31mn
  10. Bit rate                                 : 9 466 Kbps
  11. Width                                    : 1 920 pixels
  12. Height                                   : 816 pixels
  13. Display aspect ratio                     : 2.35:1
  14. Frame rate mode                          : Constant
  15. Frame rate                               : 23.976 fps
  16. Color space                              : YUV
  17. Chroma subsampling                       : 4:2:0
  18. Bit depth                                : 8 bits
  19. Scan type                                : Progressive
  20. Bits/(Pixel*Frame)                       : 0.252
  21. Stream size                              : 5.87 GiB (74%)
  22. Writing library                          : x264 core 146 r2538 121396c
  23. Encoding settings                        : cabac=1 / ref=5 / deblock=1:-1:-1 / analyse=0x3:0x133 / me=umh / subme=7 / psy=1 / psy_rd=1.00:0.00 / mixed_ref=1 / me_range=16 / chroma_me=1 / trellis=1 / 8x8dct=1 / cqm=0 / deadzone=21,11 / fast_pskip=0 / chroma_qp_offset=-2 / threads=9 / lookahead_threads=1 / sliced_threads=0 / nr=0 / decimate=1 / interlaced=0 / bluray_compat=0 / constrained_intra=0 / bframes=3 / b_pyramid=2 / b_adapt=2 / b_bias=0 / direct=3 / weightb=1 / open_gop=0 / weightp=2 / keyint=240 / keyint_min=23 / scenecut=40 / intra_refresh=0 / rc_lookahead=50 / rc=2pass / mbtree=0 / bitrate=9466 / ratetol=1.0 / qcomp=0.60 / qpmin=10 / qpmax=51 / qpstep=4 / cplxblur=20.0 / qblur=0.5 / vbv_maxrate=62500 / vbv_bufsize=78125 / nal_hrd=none / filler=0 / ip_ratio=1.40 / pb_ratio=1.30 / aq=1:1.00
  24. Default                                  : Yes
  25. Forced                                   : No

  26. Audio #1
  27. ID                                       : 2
  28. Format                                   : DTS
  29. Format/Info                              : Digital Theater Systems
  30. Mode                                     : 16
  31. Format settings, Endianness              : Big
  32. Codec ID                                 : A_DTS
  33. Duration                                 : 1h 31mn
  34. Bit rate mode                            : Constant
  35. Bit rate                                 : 1 509 Kbps
  36. Channel(s)                               : 6 channels
  37. Channel positions                        : Front: L C R, Side: L R, LFE
  38. Sampling rate                            : 48.0 KHz
  39. Bit depth                                : 24 bits
  40. Compression mode                         : Lossy
  41. Stream size                              : 984 MiB (12%)
  42. Language                                 : Japanese
  43. Default                                  : Yes
  44. Forced                                   : No

  45. Audio #2
  46. ID                                       : 3
  47. Format                                   : DTS
  48. Format/Info                              : Digital Theater Systems
  49. Mode                                     : 16
  50. Format settings, Endianness              : Big
  51. Codec ID                                 : A_DTS
  52. Duration                                 : 1h 31mn
  53. Bit rate mode                            : Constant
  54. Bit rate                                 : 1 509 Kbps
  55. Channel(s)                               : 6 channels
  56. Channel positions                        : Front: L C R, Side: L R, LFE
  57. Sampling rate                            : 48.0 KHz
  58. Bit depth                                : 24 bits
  59. Compression mode                         : Lossy
  60. Stream size                              : 984 MiB (12%)
  61. Language                                 : English
  62. Default                                  : No
  63. Forced                                   : No

  64. Text
  65. ID                                       : 4
  66. Format                                   : UTF-8
  67. Codec ID                                 : S_TEXT/UTF8
  68. Codec ID/Info                            : UTF-8 Plain Text
  69. Language                                 : English
  70. Default                                  : Yes
  71. Forced                                   : No

  72. Menu
  73. 00:00:00.000                             : ja:00:00:00.000
  74. 00:05:24.157                             : ja:00:05:24.157
  75. 00:11:31.816                             : ja:00:11:31.816
  76. 00:16:10.803                             : ja:00:16:10.803
  77. 00:20:34.650                             : ja:00:20:34.650
  78. 00:26:26.752                             : ja:00:26:26.752
  79. 00:32:24.943                             : ja:00:32:24.943
  80. 00:38:15.335                             : ja:00:38:15.335
  81. 00:43:53.047                             : ja:00:43:53.047
  82. 00:50:12.885                             : ja:00:50:12.885
  83. 00:55:35.374                             : ja:00:55:35.374
  84. 01:00:38.218                             : ja:01:00:38.218
  85. 01:07:31.464                             : ja:01:07:31.464
  86. 01:13:59.518                             : ja:01:13:59.518
  87. 01:20:10.889                             : ja:01:20:10.889
  88. 01:25:05.559                             : ja:01:25:05.559
复制代码




                                       
                                       

                                       
                                       
                                       




回复

使用道具 举报

懒得打字嘛,点击右侧快捷回复 【右侧内容,后台自定义】
您需要登录后才可以回帖 登录 | 立即加入

本版积分规则

Archiver|小黑屋| 蓝光电影网 |网站地图

Copyright © 2021 Comsenz Inc. Powered by 蓝光电影网

蓝光电影网

本站内容由用户自主分享和转载自互联网,转载目的在于传递更多信息,并不代表本网赞同其观点和对其真实性负责。

如有侵权、违反国家法律政策行为,请联系我们,我们会第一时间及时清除和处理!

举报反馈邮箱:[email protected]

快速回复 返回顶部 返回列表