找回密码

蓝光电影网

查看: 29|回复: 0

[喜剧] 精灵旅社3:疯狂假期/尖叫旅社3:怪兽假期 Hotel.Transylvania.3.Summer.Vacation.2018.1080p.BluRay.x264.DTS-HD.MA.5.1-FGT 6.04GB

[复制链接]
蓝光币
515
发表于 2020-11-26 09:46:10 | 显示全部楼层 |阅读模式


◎译  名 精灵旅社3:疯狂假期/尖叫旅社3:怪兽假期(台)/鬼灵精怪大酒店3:怪兽观光团(港)
◎片  名 Hotel Transylvania 3: Summer Vacation
◎年  代 2018
◎产  地 美国
◎类  别 笑剧 / 动画 / 奇异
◎语  言 英语
◎上映日期 2018-07-13(美国) / 2018-08-17(中国大陆)
◎IMDb评分  6.3/10 from 56149 users
◎IMDb链接  https://www.imdb.com/title/tt5220122/
◎豆瓣评分 6.7/10 from 98811 users
◎豆瓣链接 https://movie.douban.com/subject/26630714/
◎片  长 98分钟
◎导  演 格恩迪·塔塔科夫斯基 Genndy Tartakovsky
◎编  剧 迈克尔·麦库勒斯 Michael McCullers / 格恩迪·塔塔科夫斯基 Genndy Tartakovsky / 托德·杜伦 Todd Durham
◎主  演 亚当·桑德勒 Adam Sandler
       凯瑟琳·哈恩 Kathryn Hahn
       史蒂夫·布西密 Steve Buscemi
       赛琳娜·戈麦斯 Selena Gomez
       阿什·布林克夫 Asher Blinkoff
       梅尔·布鲁克斯 Mel Brooks
       科甘-迈克尔·凯 Keegan-Michael Key
       安迪·萨姆伯格 Andy Samberg
       法兰·德瑞雪 Fran Drescher
       大卫·斯佩德 David Spade
       凯文·詹姆斯 Kevin James
       莫莉·香侬 Molly Shannon
       格恩迪·塔塔科夫斯基 Genndy Tartakovsky
       乔·怀特 Joe Whyte
       克莉丝汀·泰根 Chrissy Teigen
       乔·乔纳斯 Joe Jonas
       吉姆·加菲根 Jim Gaffigan
       莎蒂·桑德勒 Sadie Sandler
       珊妮·桑德勒 Sunny Sandler
       李元韬 Yuantao Li
       米歇尔·默多卡 Michelle Murdocca
◎标  签 动画 | 笑剧 | 美国 | 搞笑 | 吸血鬼 | 家庭 | 治愈 | 2018
◎简  介


  子孙合座,亲友和睦,吸血鬼伯爵德古拉(亚当·桑德勒 Adam Sandler 配音)在享用生射中最美好的一段时光。只不外喧哗事后,他也堕入深深的落漠中,似乎刻毒的伯爵也起头期待美好的恋爱了。善解人意的梅菲丝(琳娜·戈麦斯 Selena Gomez 配音)看破了爸爸的心机,因而带着家人和朋友们踏上了一段布满欣喜的意外之旅。在百慕大的怪兽游轮上,德古拉相逢了美丽的人类船主艾丽卡(凯瑟琳·哈恩 Kathryn Hahn 配音),他对这个美人一见钟情,却没成心想到对方来自死对头的范·海辛一族。
  
  与怪兽们缠斗上百年的亚伯拉罕·范·海辛(吉姆·加菲根 Jim Gaffigan 配音),意图操纵此次千载难逢的机遇将死对头德古拉以及他的伙伴们一网打尽……
◎获奖情况
  第46届动画安妮奖 ?(2019)
  最好导演(提名) 格恩迪·塔塔科夫斯基
  最好艺术指导(提名)
  最好动画结果(提名)
  1. Video
  2. ID                                       : 1
  3. Format                                   : AVC
  4. Format/Info                              : Advanced Video Codec
  5. Format profile                           : [email protected]
  6. Format settings                          : CABAC / 4 Ref Frames
  7. Format settings, CABAC                   : Yes
  8. Format settings, ReFrames                : 4 frames
  9. Codec ID                                 : V_MPEG4/ISO/AVC
  10. Duration                                 : 1 h 37 min
  11. Bit rate                                 : 6 519 kb/s
  12. Width                                    : 1 920 pixels
  13. Height                                   : 1 040 pixels
  14. Display aspect ratio                     : 1.85:1
  15. Frame rate mode                          : Constant
  16. Frame rate                               : 23.976 (24000/1001/189150) FPS
  17. Color space                              : YUV
  18. Chroma subsampling                       : 4:2:0
  19. Bit depth                                : 8 bits
  20. Scan type                                : Progressive
  21. Bits/(Pixel*Frame)                       : 0.136
  22. Stream size                              : 4.43 GiB (73%)
  23. Title                                    : Hotel.Transylvania.3.Summer.Vacation.2018.1080p.BluRay.x264.DTS-HD.MA.5.1-FGT
  24. Writing library                          : x264 core 155 r2901 7d0ff22
  25. Encoding settings                        : cabac=1 / ref=4 / deblock=1:0:0 / analyse=0x3:0x113 / me=umh / subme=8 / psy=1 / psy_rd=1.00:0.00 / mixed_ref=1 / me_range=16 / chroma_me=1 / trellis=1 / 8x8dct=1 / cqm=0 / deadzone=21,11 / fast_pskip=1 / chroma_qp_offset=-2 / threads=24 / lookahead_threads=4 / sliced_threads=0 / nr=0 / decimate=1 / interlaced=0 / bluray_compat=0 / constrained_intra=0 / bframes=3 / b_pyramid=2 / b_adapt=1 / b_bias=0 / direct=3 / weightb=1 / open_gop=0 / weightp=2 / keyint=240 / keyint_min=24 / scenecut=40 / intra_refresh=0 / rc_lookahead=50 / rc=2pass / mbtree=1 / bitrate=6519 / ratetol=1.0 / qcomp=0.60 / qpmin=0 / qpmax=69 / qpstep=4 / cplxblur=20.0 / qblur=0.5 / ip_ratio=1.40 / aq=1:1.00
  26. Language                                 : English
  27. Default                                  : Yes
  28. Forced                                   : No
  29. Audio
  30. ID                                       : 2
  31. Format                                   : DTS
  32. Format/Info                              : Digital Theater Systems
  33. Format profile                           : MA / Core
  34. Codec ID                                 : A_DTS
  35. Duration                                 : 1 h 37 min
  36. Bit rate mode                            : Variable / Constant
  37. Bit rate                                 : 2 278 kb/s / 1 509 kb/s
  38. Channel(s)                               : 6 channels
  39. Channel positions                        : Front: L C R, Side: L R, LFE
  40. Sampling rate                            : 48.0 kHz
  41. Frame rate                               : 93.750 FPS (512 SPF)
  42. Bit depth                                : 16 bits
  43. Compression mode                         : Lossless / Lossy
  44. Stream size                              : 1.55 GiB (26%)
  45. Title                                    : Hotel.Transylvania.3.Summer.Vacation.2018.1080p.BluRay.x264.DTS-HD.MA.5.1-FGT
  46. Language                                 : English
  47. Default                                  : Yes
  48. Forced                                   : No
  49. Text #1
  50. ID                                       : 3
  51. Format                                   : UTF-8
  52. Codec ID                                 : S_TEXT/UTF8
  53. Codec ID/Info                            : UTF-8 Plain Text
  54. Duration                                 : 1 h 30 min
  55. Bit rate                                 : 52 b/s
  56. Count of elements                        : 1295
  57. Stream size                              : 35.1 KiB (0%)
  58. Title                                    : English-SRT
  59. Language                                 : English
  60. Default                                  : Yes
  61. Forced                                   : No
  62. Text #2
  63. ID                                       : 4
  64. Format                                   : UTF-8
  65. Codec ID                                 : S_TEXT/UTF8
  66. Codec ID/Info                            : UTF-8 Plain Text
  67. Duration                                 : 1 h 30 min
  68. Bit rate                                 : 65 b/s
  69. Count of elements                        : 1629
  70. Stream size                              : 43.8 KiB (0%)
  71. Title                                    : English-SDH-SRT
  72. Language                                 : English
  73. Default                                  : No
  74. Forced                                   : No
  75. Text #3
  76. ID                                       : 5
  77. Format                                   : PGS
  78. Muxing mode                              : zlib
  79. Codec ID                                 : S_HDMV/PGS
  80. Codec ID/Info                            : Picture based subtitle format used on BDs/HD-DVDs
  81. Duration                                 : 1 h 26 min
  82. Bit rate                                 : 36.5 kb/s
  83. Count of elements                        : 2198
  84. Stream size                              : 22.6 MiB (0%)
  85. Title                                    : English-PGS
  86. Language                                 : English
  87. Default                                  : No
  88. Forced                                   : No
  89. Text #4
  90. ID                                       : 6
  91. Format                                   : PGS
  92. Muxing mode                              : zlib
  93. Codec ID                                 : S_HDMV/PGS
  94. Codec ID/Info                            : Picture based subtitle format used on BDs/HD-DVDs
  95. Duration                                 : 1 h 30 min
  96. Bit rate                                 : 53.3 kb/s
  97. Count of elements                        : 3259
  98. Stream size                              : 34.6 MiB (1%)
  99. Title                                    : English-SDH-PGS
  100. Language                                 : English
  101. Default                                  : No
  102. Forced                                   : No
  103. Text #5
  104. ID                                       : 7
  105. Format                                   : PGS
  106. Muxing mode                              : zlib
  107. Codec ID                                 : S_HDMV/PGS
  108. Codec ID/Info                            : Picture based subtitle format used on BDs/HD-DVDs
  109. Duration                                 : 1 h 36 min
  110. Bit rate                                 : 31.4 kb/s
  111. Count of elements                        : 2090
  112. Stream size                              : 21.8 MiB (0%)
  113. Title                                    : French-PGS
  114. Language                                 : French
  115. Default                                  : No
  116. Forced                                   : No
  117. Text #6
  118. ID                                       : 8
  119. Format                                   : PGS
  120. Muxing mode                              : zlib
  121. Codec ID                                 : S_HDMV/PGS
  122. Codec ID/Info                            : Picture based subtitle format used on BDs/HD-DVDs
  123. Duration                                 : 1 h 36 min
  124. Bit rate                                 : 32.2 kb/s
  125. Count of elements                        : 2006
  126. Stream size                              : 22.2 MiB (0%)
  127. Title                                    : Spanish-PGS
  128. Language                                 : Spanish
  129. Default                                  : No
  130. Forced                                   : No
  131. Text #7
  132. ID                                       : 9
  133. Format                                   : PGS
  134. Muxing mode                              : zlib
  135. Codec ID                                 : S_HDMV/PGS
  136. Codec ID/Info                            : Picture based subtitle format used on BDs/HD-DVDs
  137. Duration                                 : 1 h 36 min
  138. Bit rate                                 : 84 b/s
  139. Count of elements                        : 8
  140. Stream size                              : 60.0 KiB (0%)
  141. Title                                    : French-PGS
  142. Language                                 : French
  143. Default                                  : No
  144. Forced                                   : No
  145. Menu
  146. 00:00:00.000                             : en:00:00:00.000
  147. 00:04:28.935                             : en:00:04:28.935
  148. 00:09:34.824                             : en:00:09:34.824
  149. 00:16:02.044                             : en:00:16:02.044
  150. 00:20:03.077                             : en:00:20:03.077
  151. 00:24:34.932                             : en:00:24:34.932
  152. 00:31:12.537                             : en:00:31:12.537
  153. 00:36:49.207                             : en:00:36:49.207
  154. 00:44:04.725                             : en:00:44:04.725
  155. 00:49:57.703                             : en:00:49:57.703
  156. 00:54:49.745                             : en:00:54:49.745
  157. 01:00:34.881                             : en:01:00:34.881
  158. 01:06:12.010                             : en:01:06:12.010
  159. 01:10:32.270                             : en:01:10:32.270
  160. 01:13:46.380                             : en:01:13:46.380
  161. 01:24:56.550                             : en:01:24:56.550
复制代码






                                       
                                       

                                       
                                       
                                       




回复

使用道具 举报

懒得打字嘛,点击右侧快捷回复 【右侧内容,后台自定义】
您需要登录后才可以回帖 登录 | 立即加入

本版积分规则

Archiver|小黑屋| 蓝光电影网 |网站地图

Copyright © 2021 Comsenz Inc. Powered by 蓝光电影网

蓝光电影网

本站内容由用户自主分享和转载自互联网,转载目的在于传递更多信息,并不代表本网赞同其观点和对其真实性负责。

如有侵权、违反国家法律政策行为,请联系我们,我们会第一时间及时清除和处理!

举报反馈邮箱:[email protected]

快速回复 返回顶部 返回列表