找回密码

蓝光电影网

查看: 24|回复: 0

[剧情] 一九八四 1984.1984.REMASTERED.1080p.BluRay.REMUX.AVC.LCPM.1.0-FGT 29.43GB

[复制链接]
蓝光币
511
发表于 2019-7-29 01:07:28 | 显示全部楼层 |阅读模式


◎译  名 一九八四 / 1984
◎片  名 Nineteen Eighty-Four
◎年  代 1984
◎产  地 英国
◎类  别 剧情 / 恋爱 / 科幻 / 惊悚
◎语  言 英语
◎上映日期 1984-10-10(英国)
◎IMDb评分  7.2/10 from 60356 users
◎IMDb链接  http://www.imdb.com/title/tt0087803
◎豆瓣评分 7.7/10 from 9972 users
◎豆瓣链接 https://movie.douban.com/subject/1301849/
◎片  长 113分钟
◎导  演 Michael Radford
◎编  剧 Michael Radford / 乔治·奥威尔 George Orwell
◎主  演 约翰·赫特 John Hurt
      理查德·伯顿 Richard Burton
      苏珊娜·汉密尔顿 Suzanna Hamilton
      西里尔·库萨克 Cyril Cusack
      格莱格·费什尔 Gregor Fisher
      James Walker
      Andrew Wilde
      David Trevena
      David Cann
      Anthony Benson
      Peter Frye
      罗格·洛伊德-派克 Roger Lloyd-Pack
      Rupert Baderman
      Corinna Seddon
      Martha Parsey
      Merelina Kendall
      Joscik Barbarossa
      John Boswall
      鲍勃·弗莱格 Bob Flag

◎标  签 英国 | 反乌托邦 | 1984 | 政治 | 科幻 | 小说改编 | 英国电影 | 剧情
◎简  介  
  这是一部虚拟的政治可骇电影。一九八四年,在履历一系列战争和合并后,天下只存在三个超级大国了——大洋国、东亚国和欧亚国。温斯顿(约翰?赫特 John Hurt  饰)生活在老年老统治下的大洋国,这里,和其他两国一样,处处都安装着电幕(一品种似电视机的监视器),每小我都生活都在党的思惟差人的监视下,历史完全依照党的需要天天都被改写。
虽然没法说出为什么,作为外围党员的温斯顿从心里厌恶老年老。一日,他偷偷从一家陈年杂货铺处买了一本日志本——原则上党不答应写日志,表达小我思惟——起头写日志。当他和在小说司工作的裘莉亚(苏珊娜?汉密尔顿 Suzanna Hamilton 饰)违反党的政策起头奥秘偷情时,思惟差人静静盯上了他。
  1. Video
  2. ID                                       : 1
  3. Format                                   : AVC
  4. Format/Info                              : Advanced Video Codec
  5. Format profile                           : [email protected]
  6. Format settings                          : CABAC / 4 Ref Frames
  7. Format settings, CABAC                   : Yes
  8. Format settings, Reference frames        : 4 frames
  9. Codec ID                                 : V_MPEG4/ISO/AVC
  10. Duration                                 : 1 h 50 min
  11. Bit rate mode                            : Variable
  12. Bit rate                                 : 35.8 Mb/s
  13. Maximum bit rate                         : 37.0 Mb/s
  14. Width                                    : 1 920 pixels
  15. Height                                   : 1 080 pixels
  16. Display aspect ratio                     : 16:9
  17. Frame rate mode                          : Constant
  18. Frame rate                               : 23.976 (24000/1001) FPS
  19. Color space                              : YUV
  20. Chroma subsampling                       : 4:2:0
  21. Bit depth                                : 8 bits
  22. Scan type                                : Progressive
  23. Bits/(Pixel*Frame)                       : 0.719
  24. Stream size                              : 27.6 GiB (94%)
  25. Title                                    : 1984.1984.REMASTERED.1080p.BluRay.REMUX.AVC.LCPM.1.0-FGT
  26. Language                                 : English
  27. Default                                  : No
  28. Forced                                   : No
  29. Audio #1
  30. ID                                       : 2
  31. Format                                   : PCM
  32. Format settings                          : Little / Signed
  33. Codec ID                                 : A_PCM/INT/LIT
  34. Duration                                 : 1 h 50 min
  35. Bit rate mode                            : Constant
  36. Bit rate                                 : 1 152 kb/s
  37. Sampling rate                            : 48.0 kHz
  38. Frame rate                               : 30.000 FPS (1600 SPF)
  39. Bit depth                                : 24 bits
  40. Stream size                              : 912 MiB (3%)
  41. Title                                    : 1984.1984.REMASTERED.1080p.BluRay.REMUX.AVC.LCPM.1.0-FGT
  42. Language                                 : English
  43. Default                                  : Yes
  44. Forced                                   : No
  45. Audio #2
  46. ID                                       : 3
  47. Format                                   : PCM
  48. Format settings                          : Little / Signed
  49. Codec ID                                 : A_PCM/INT/LIT
  50. Duration                                 : 1 h 50 min
  51. Bit rate mode                            : Constant
  52. Bit rate                                 : 1 152 kb/s
  53. Sampling rate                            : 48.0 kHz
  54. Frame rate                               : 30.000 FPS (1600 SPF)
  55. Bit depth                                : 24 bits
  56. Stream size                              : 912 MiB (3%)
  57. Title                                    : 1984.1984.REMASTERED.1080p.BluRay.REMUX.AVC.LCPM.1.0-FGT
  58. Language                                 : English
  59. Default                                  : No
  60. Forced                                   : No
  61. Text
  62. ID                                       : 4
  63. Format                                   : PGS
  64. Muxing mode                              : zlib
  65. Codec ID                                 : S_HDMV/PGS
  66. Codec ID/Info                            : Picture based subtitle format used on BDs/HD-DVDs
  67. Duration                                 : 1 h 46 min
  68. Bit rate                                 : 43.4 kb/s
  69. Count of elements                        : 2632
  70. Stream size                              : 33.2 MiB (0%)
  71. Title                                    : English-PGS
  72. Language                                 : English
  73. Default                                  : Yes
  74. Forced                                   : No
  75. Menu
  76. 00:00:00.000                             : en:Chapter 01
  77. 00:06:12.997                             : en:Chapter 02
  78. 00:11:50.876                             : en:Chapter 03
  79. 00:20:18.175                             : en:Chapter 04
  80. 00:27:41.951                             : en:Chapter 05
  81. 00:34:21.017                             : en:Chapter 06
  82. 00:40:26.340                             : en:Chapter 07
  83. 00:47:45.028                             : en:Chapter 08
  84. 01:01:26.224                             : en:Chapter 09
  85. 01:15:18.305                             : en:Chapter 10
  86. 01:20:02.130                             : en:Chapter 11
  87. 01:26:42.989                             : en:Chapter 12
  88. 01:37:25.840                             : en:Chapter 13
  89. 01:40:56.050                             : en:Chapter 14
复制代码






                                       
                                       

                                       
                                       
                                       




回复

使用道具 举报

懒得打字嘛,点击右侧快捷回复 【右侧内容,后台自定义】
您需要登录后才可以回帖 登录 | 立即加入

本版积分规则

Archiver|小黑屋| 蓝光电影网 |网站地图

Copyright © 2021 Comsenz Inc. Powered by 蓝光电影网

蓝光电影网

本站内容由用户自主分享和转载自互联网,转载目的在于传递更多信息,并不代表本网赞同其观点和对其真实性负责。

如有侵权、违反国家法律政策行为,请联系我们,我们会第一时间及时清除和处理!

举报反馈邮箱:[email protected]

快速回复 返回顶部 返回列表