找回密码

蓝光电影网

查看: 12|回复: 0

[喜剧] 人吓鬼 Hocus.Pocus.1984.CHINESE.1080p.BluRay.x264.DD2.0-PbK 12.08GB

[复制链接]
蓝光币
515
发表于 2020-11-26 09:42:57 | 显示全部楼层 |阅读模式


◎译  名 Hocus Pocus/Hogus Pogus
◎片  名 人吓鬼
◎年  代 1984
◎产  地 中国香港
◎类  别 笑剧 / 奇异
◎语  言 粤语
◎上映日期 1984-01-12
◎IMDb评分  5.3/10 from 106 users
◎IMDb链接  https://www.imdb.com/title/tt0087993/
◎豆瓣评分 6.7/10 from 4923 users
◎豆瓣链接 https://movie.douban.com/subject/2003667/
◎片  长 93 分钟
◎导  演 钱月笙 Yuet Sang Chin
◎主  演 林正英 Ching-Ying Lam
       董玮 Wai Tung
       陈龙 Peter Chan Lung
       罗浩楷 Ho Kai Law
       钱月笙 Yuet Sang Chin
       刘雅丽 Alice Lau
       午马 Wu Ma
       泰山 San Tai
       沙鸥 Ou Sha
◎标  签 林正英 | 香港 | 僵尸 | 可骇 | 笑剧 | 香港电影 | 行动 | 1984
◎简  介


  这是一个发生在上个世纪80年月香港戏班里的故事。戏班里顽皮捣鬼的武生阿贵(董玮 饰)经常扮鬼吓人,连戏班的台柱新少佳都经常被他玩弄,大师对他既生气,亦无可何如。
  
  此次,当阿贵又扮鬼吓人时,岂料碰上了真鬼——潮州鬼。阿贵吓得屁滚尿流,幸亏戏班里的老衣箱声叔(林正英 饰)这方面经历丰富,他得知潮州鬼生前被人分尸,死后才冤魂不散。为了让潮州鬼安息,声叔和阿贵决议找全潮州鬼的尸骨。不意却错挖了另一个恶鬼的尸骨,一时候,戏班被恶鬼弄得一塌糊涂,声叔决议和阿贵一路扮天师吓走恶鬼。
◎获奖情况
  第4届香港电影金像奖 ?(1985)
  最好打扮外型设想(提名)
  1. Video
  2. ID                                       : 1
  3. Format                                   : AVC
  4. Format/Info                              : Advanced Video Codec
  5. Format profile                           : [email protected]
  6. Format settings                          : CABAC / 5 Ref Frames
  7. Format settings, CABAC                   : Yes
  8. Format settings, Reference frames        : 5 frames
  9. Codec ID                                 : V_MPEG4/ISO/AVC
  10. Duration                                 : 1 h 33 min
  11. Bit rate                                 : 18.0 Mb/s
  12. Width                                    : 1 920 pixels
  13. Height                                   : 816 pixels
  14. Display aspect ratio                     : 2.35:1
  15. Frame rate mode                          : Constant
  16. Frame rate                               : 24.000 FPS
  17. Color space                              : YUV
  18. Chroma subsampling                       : 4:2:0
  19. Bit depth                                : 8 bits
  20. Scan type                                : Progressive
  21. Bits/(Pixel*Frame)                       : 0.479
  22. Stream size                              : 11.8 GiB (98%)
  23. Writing library                          : x264 core 155 r2901 7d0ff22
  24. Encoding settings                        : cabac=1 / ref=5 / deblock=1:-3:-3 / analyse=0x3:0x133 / me=umh / subme=11 / psy=1 / psy_rd=1.00:0.00 / mixed_ref=1 / me_range=48 / chroma_me=1 / trellis=2 / 8x8dct=1 / cqm=0 / deadzone=21,11 / fast_pskip=1 / chroma_qp_offset=-2 / threads=18 / lookahead_threads=3 / sliced_threads=0 / nr=0 / decimate=1 / interlaced=0 / bluray_compat=0 / constrained_intra=0 / bframes=8 / b_pyramid=2 / b_adapt=2 / b_bias=0 / direct=3 / weightb=1 / open_gop=0 / weightp=2 / keyint=240 / keyint_min=24 / scenecut=40 / intra_refresh=0 / rc=2pass / mbtree=0 / bitrate=18000 / ratetol=1.0 / qcomp=0.60 / qpmin=0 / qpmax=69 / qpstep=4 / cplxblur=20.0 / qblur=0.5 / ip_ratio=1.30 / pb_ratio=1.20 / aq=3:0.80
  25. Language                                 : Chinese
  26. Default                                  : Yes
  27. Forced                                   : No
  28. Color range                              : Limited
  29. Color primaries                          : BT.709
  30. Transfer characteristics                 : BT.709
  31. Matrix coefficients                      : BT.709
  32. Audio
  33. ID                                       : 2
  34. Format                                   : AC-3
  35. Format/Info                              : Audio Coding 3
  36. Commercial name                          : Dolby Digital
  37. Codec ID                                 : A_AC3
  38. Duration                                 : 1 h 33 min
  39. Bit rate mode                            : Constant
  40. Bit rate                                 : 384 kb/s
  41. Channel(s)                               : 2 channels
  42. Channel layout                           : L R
  43. Sampling rate                            : 48.0 kHz
  44. Frame rate                               : 31.250 FPS (1536 SPF)
  45. Compression mode                         : Lossy
  46. Stream size                              : 258 MiB (2%)
  47. Title                                    : Cantonese
  48. Language                                 : Chinese
  49. Service kind                             : Complete Main
  50. Default                                  : Yes
  51. Forced                                   : No
  52. Text #1
  53. ID                                       : 3
  54. Format                                   : UTF-8
  55. Codec ID                                 : S_TEXT/UTF8
  56. Codec ID/Info                            : UTF-8 Plain Text
  57. Duration                                 : 1 h 31 min
  58. Bit rate                                 : 26 b/s
  59. Count of elements                        : 978
  60. Stream size                              : 17.8 KiB (0%)
  61. Language                                 : English
  62. Default                                  : Yes
  63. Forced                                   : No
  64. Text #2
  65. ID                                       : 4
  66. Format                                   : PGS
  67. Muxing mode                              : zlib
  68. Codec ID                                 : S_HDMV/PGS
  69. Codec ID/Info                            : Picture based subtitle format used on BDs/HD-DVDs
  70. Duration                                 : 1 h 31 min
  71. Bit rate                                 : 22.8 kb/s
  72. Count of elements                        : 1458
  73. Stream size                              : 14.9 MiB (0%)
  74. Language                                 : English
  75. Default                                  : No
  76. Forced                                   : No
  77. Text #3
  78. ID                                       : 5
  79. Format                                   : PGS
  80. Muxing mode                              : zlib
  81. Codec ID                                 : S_HDMV/PGS
  82. Codec ID/Info                            : Picture based subtitle format used on BDs/HD-DVDs
  83. Duration                                 : 1 h 31 min
  84. Bit rate                                 : 28.6 kb/s
  85. Count of elements                        : 1457
  86. Stream size                              : 18.7 MiB (0%)
  87. Language                                 : Chinese
  88. Default                                  : No
  89. Forced                                   : No
  90. Text #4
  91. ID                                       : 6
  92. Format                                   : PGS
  93. Muxing mode                              : zlib
  94. Codec ID                                 : S_HDMV/PGS
  95. Codec ID/Info                            : Picture based subtitle format used on BDs/HD-DVDs
  96. Duration                                 : 1 h 31 min
  97. Bit rate                                 : 28.0 kb/s
  98. Count of elements                        : 1458
  99. Stream size                              : 18.3 MiB (0%)
  100. Language                                 : Chinese
  101. Default                                  : No
  102. Forced                                   : No
复制代码





                                       
                                       

                                       
                                       
                                       




回复

使用道具 举报

懒得打字嘛,点击右侧快捷回复 【右侧内容,后台自定义】
您需要登录后才可以回帖 登录 | 立即加入

本版积分规则

Archiver|小黑屋| 蓝光电影网 |网站地图

Copyright © 2021 Comsenz Inc. Powered by 蓝光电影网

蓝光电影网

本站内容由用户自主分享和转载自互联网,转载目的在于传递更多信息,并不代表本网赞同其观点和对其真实性负责。

如有侵权、违反国家法律政策行为,请联系我们,我们会第一时间及时清除和处理!

举报反馈邮箱:[email protected]

快速回复 返回顶部 返回列表