找回密码

蓝光电影网

查看: 20|回复: 0

[喜剧] 华清春暖 Footlight.Parade.1933.1080p.BluRay.REMUX.AVC.DTS-HD.MA.2.0-FGT 26.66GB

[复制链接]
蓝光币
515
发表于 2019-7-28 12:10:55 | 显示全部楼层 |阅读模式


◎译  名 华清春暖
◎片  名 Footlight Parade
◎年  代 1933
◎产  地 美国
◎类  别 笑剧 / 恋爱 / 歌舞
◎语  言 英语
◎上映日期 1933-10-21
◎IMDb评分  7.7/10 from 4222 users
◎IMDb链接  http://www.imdb.com/title/tt0024028
◎豆瓣评分 7.7/10 from 1438 users
◎豆瓣链接 https://movie.douban.com/subject/1304527/
◎片  长 104 分钟
◎导  演 劳埃德·培根 Lloyd Bacon
◎编  剧 James Seymour / Manuel Seff
◎主  演 詹姆斯·贾克内 James Cagney
      Joan Blondell
      Ruby Keeler

◎标  签 美国 | 歌舞 | 歌舞片 | 美国电影 | 笑剧 | 1933 | 1930s | 歌舞剧
◎简  介  
  暂无相关剧情先容
  1. Video
  2. ID                                       : 1
  3. Format                                   : AVC
  4. Format/Info                              : Advanced Video Codec
  5. Format profile                           : [email protected]
  6. Format settings                          : CABAC / 4 Ref Frames
  7. Format settings, CABAC                   : Yes
  8. Format settings, Reference frames        : 4 frames
  9. Codec ID                                 : V_MPEG4/ISO/AVC
  10. Duration                                 : 1 h 43 min
  11. Bit rate mode                            : Variable
  12. Bit rate                                 : 34.9 Mb/s
  13. Maximum bit rate                         : 38.0 Mb/s
  14. Width                                    : 1 920 pixels
  15. Height                                   : 1 080 pixels
  16. Display aspect ratio                     : 16:9
  17. Frame rate mode                          : Constant
  18. Frame rate                               : 23.976 (24000/1001) FPS
  19. Color space                              : YUV
  20. Chroma subsampling                       : 4:2:0
  21. Bit depth                                : 8 bits
  22. Scan type                                : Progressive
  23. Bits/(Pixel*Frame)                       : 0.701
  24. Stream size                              : 25.2 GiB (94%)
  25. Title                                    : Footlight.Parade.1933.1080p.BluRay.REMUX.AVC.DTS-HD.MA.2.0-FGT
  26. Language                                 : English
  27. Default                                  : No
  28. Forced                                   : No
  29. Audio
  30. ID                                       : 2
  31. Format                                   : DTS XLL
  32. Format/Info                              : Digital Theater Systems
  33. Commercial name                          : DTS-HD Master Audio
  34. Codec ID                                 : A_DTS
  35. Duration                                 : 1 h 43 min
  36. Bit rate mode                            : Variable
  37. Bit rate                                 : 1 999 kb/s
  38. Channel(s)                               : 2 channels
  39. Channel layout                           : L R
  40. Sampling rate                            : 48.0 kHz
  41. Frame rate                               : 93.750 FPS (512 SPF)
  42. Bit depth                                : 24 bits
  43. Compression mode                         : Lossless
  44. Stream size                              : 1.44 GiB (5%)
  45. Title                                    : Footlight.Parade.1933.1080p.BluRay.REMUX.AVC.DTS-HD.MA.2.0-FGT
  46. Language                                 : English
  47. Default                                  : Yes
  48. Forced                                   : No
  49. Text
  50. ID                                       : 3
  51. Format                                   : PGS
  52. Muxing mode                              : zlib
  53. Codec ID                                 : S_HDMV/PGS
  54. Codec ID/Info                            : Picture based subtitle format used on BDs/HD-DVDs
  55. Duration                                 : 1 h 41 min
  56. Bit rate                                 : 62.0 kb/s
  57. Count of elements                        : 4430
  58. Stream size                              : 44.9 MiB (0%)
  59. Title                                    : English-PGS
  60. Language                                 : English
  61. Default                                  : Yes
  62. Forced                                   : No
  63. Menu
  64. 00:00:00.000                             : en:Chapter 01
  65. 00:02:00.370                             : en:Chapter 02
  66. 00:05:40.465                             : en:Chapter 03
  67. 00:07:08.344                             : en:Chapter 04
  68. 00:12:17.653                             : en:Chapter 05
  69. 00:14:34.290                             : en:Chapter 06
  70. 00:18:03.624                             : en:Chapter 07
  71. 00:21:44.636                             : en:Chapter 08
  72. 00:24:25.714                             : en:Chapter 09
  73. 00:26:50.942                             : en:Chapter 10
  74. 00:32:40.083                             : en:Chapter 11
  75. 00:36:26.267                             : en:Chapter 12
  76. 00:40:49.780                             : en:Chapter 13
  77. 00:44:08.437                             : en:Chapter 14
  78. 00:48:54.681                             : en:Chapter 15
  79. 00:51:32.839                             : en:Chapter 16
  80. 00:57:05.672                             : en:Chapter 17
  81. 01:01:13.503                             : en:Chapter 18
  82. 01:06:22.561                             : en:Chapter 19
  83. 01:08:47.414                             : en:Chapter 20
  84. 01:13:48.257                             : en:Chapter 21
  85. 01:17:59.383                             : en:Chapter 22
  86. 01:24:40.241                             : en:Chapter 23
  87. 01:29:10.636                             : en:Chapter 24
  88. 01:31:52.340                             : en:Chapter 25
  89. 01:37:40.771                             : en:Chapter 26
  90. 01:42:21.426                             : en:Chapter 27
  91. 01:43:11.143                             : en:Chapter 28
  92. 01:43:25.157                             : en:Chapter 29
复制代码






                                       
                                       

                                       
                                       
                                       




回复

使用道具 举报

懒得打字嘛,点击右侧快捷回复 【右侧内容,后台自定义】
您需要登录后才可以回帖 登录 | 立即加入

本版积分规则

Archiver|小黑屋| 蓝光电影网 |网站地图

Copyright © 2021 Comsenz Inc. Powered by 蓝光电影网

蓝光电影网

本站内容由用户自主分享和转载自互联网,转载目的在于传递更多信息,并不代表本网赞同其观点和对其真实性负责。

如有侵权、违反国家法律政策行为,请联系我们,我们会第一时间及时清除和处理!

举报反馈邮箱:[email protected]

快速回复 返回顶部 返回列表