找回密码

蓝光电影网

查看: 19|回复: 0

[剧情] 大象席地而坐 An.Elephant.Sitting.Still.2018.CHINESE.1080p.BluRay.REMUX.AVC.DD5.1-FGT 36.74GB

[复制链接]
蓝光币
519
发表于 2019-7-29 00:57:38 | 显示全部楼层 |阅读模式


◎译  名 An Elephant Sitting Still / 爱在樱花盛开时 / 金羊毛
◎片  名 大象席地而坐
◎年  代 2018
◎产  地 中国大陆
◎类  别 剧情
◎语  言 汉语普通话
◎上映日期 2018-02-16(柏林电影节)
◎IMDb评分  7.8/10 from 2221 users
◎IMDb链接  http://www.imdb.com/title/tt8020896
◎豆瓣评分 8.0/10 from 82404 users
◎豆瓣链接 https://movie.douban.com/subject/27172891/
◎片  长 234分钟(导演剪辑版)
◎导  演 胡迁 Qian Hu
◎编  剧 胡迁 Qian Hu
◎主  演 彭昱畅 Yuchang Peng
      章宇 Yu Zhang
      王玉雯 Uvin Wang
      李从喜 Congxi Li
      董向荣 Xiangrong Dong
      王柠 Ning Wang
      赵燕国彰 Guozhang Zhao-Yan
      朱颜曼滋 Yanmanzi Zhu
      凌正辉 Zhenghui Ling
      王超北 Chaobei Wang
      王雪洋 Xueyang Wang

◎标  签 人性 | 文艺 | 剧情 | 中国大陆 | 柏林电影节 | 胡波 | 国产 | 自力电影
◎简  介  
  满乡镇动物园有一头大象,天天坐在那边。为朋友出头的少年、为弟报仇的恶霸哥哥、身陷囹圉的女生,卡在天下昏暗的裂缝里没法脱身,却挣扎着去看大象。萧瑟隆冬的一天,失望身影在差池称不服衡的影象中碰撞, 爆裂了压制的沉郁,在粗糙布景、朦胧灯光的低本钱建造中肆意舒展。作者兼导演胡波 (笔名胡迁)首作,以青涩朴质与震动感性,获柏林影展欣赏入围论坛单元, 却是没法嵌合和谐主旋律的一块失落拼图。看不见大象是配合宿命,胡波突然殒落,也成了这一代人的遗憾。
◎获奖情况  
  第68届柏林国际电影节(2018)
  最好童贞作奖 出格说起 胡波
  最好童贞作奖(提名) 胡波
  费比西奖(国际影评人同盟奖) 论坛及新电影论坛最好影片 胡波
  第55届台北金马影展(2018)
  金马奖 最好剧情片
  金马奖 最好男配角(提名) 彭昱畅
  金马奖 最好改编剧本 胡波
  金马奖 最好新导演(提名) 胡波
  金马奖 最好摄影(提名) 范超
  金马奖 最好原创配乐(提名)
  观众票选最好影片
  第66届圣塞巴斯蒂安国际电影节(2018)
  开放电影大奖(提名) 胡波
  第42届香港国际电影节(2018)
  观众票选大奖 胡波
  第5届豆瓣电影年度榜单(2018)
  评分最高的华语电影(提名)

  1. Video
  2. ID                                       : 1
  3. Format                                   : AVC
  4. Format/Info                              : Advanced Video Codec
  5. Format profile                           : [email protected]
  6. Format settings                          : CABAC / 4 Ref Frames
  7. Format settings, CABAC                   : Yes
  8. Format settings, Reference frames        : 4 frames
  9. Format settings, GOP                     : M=3, N=24
  10. Codec ID                                 : V_MPEG4/ISO/AVC
  11. Duration                                 : 3 h 54 min
  12. Bit rate mode                            : Variable
  13. Bit rate                                 : 22.0 Mb/s
  14. Maximum bit rate                         : 35.0 Mb/s
  15. Width                                    : 1 920 pixels
  16. Height                                   : 1 080 pixels
  17. Display aspect ratio                     : 16:9
  18. Frame rate mode                          : Constant
  19. Frame rate                               : 24.000 FPS
  20. Standard                                 : NTSC
  21. Color space                              : YUV
  22. Chroma subsampling                       : 4:2:0
  23. Bit depth                                : 8 bits
  24. Scan type                                : Progressive
  25. Bits/(Pixel*Frame)                       : 0.442
  26. Stream size                              : 36.0 GiB (98%)
  27. Title                                    : An.Elephant.Sitting.Still.2018.CHINESE.1080p.BluRay.REMUX.AVC.DD5.1-FGT
  28. Language                                 : English
  29. Default                                  : No
  30. Forced                                   : No
  31. Color range                              : Limited
  32. Color primaries                          : BT.709
  33. Transfer characteristics                 : BT.709
  34. Matrix coefficients                      : BT.709
  35. Audio
  36. ID                                       : 2
  37. Format                                   : AC-3
  38. Format/Info                              : Audio Coding 3
  39. Commercial name                          : Dolby Digital
  40. Codec ID                                 : A_AC3
  41. Duration                                 : 3 h 54 min
  42. Bit rate mode                            : Constant
  43. Bit rate                                 : 448 kb/s
  44. Channel(s)                               : 6 channels
  45. Channel layout                           : L R C LFE Ls Rs
  46. Sampling rate                            : 48.0 kHz
  47. Frame rate                               : 31.250 FPS (1536 SPF)
  48. Bit depth                                : 16 bits
  49. Compression mode                         : Lossy
  50. Stream size                              : 750 MiB (2%)
  51. Title                                    : An.Elephant.Sitting.Still.2018.CHINESE.1080p.BluRay.REMUX.AVC.DD5.1-FGT
  52. Language                                 : Chinese
  53. Service kind                             : Complete Main
  54. Default                                  : Yes
  55. Forced                                   : No
  56. Text #1
  57. ID                                       : 3
  58. Format                                   : PGS
  59. Muxing mode                              : zlib
  60. Codec ID                                 : S_HDMV/PGS
  61. Codec ID/Info                            : Picture based subtitle format used on BDs/HD-DVDs
  62. Duration                                 : 3 h 41 min
  63. Bit rate                                 : 21.0 kb/s
  64. Count of elements                        : 2502
  65. Stream size                              : 33.2 MiB (0%)
  66. Title                                    : English-PGS
  67. Language                                 : English
  68. Default                                  : Yes
  69. Forced                                   : No
  70. Text #2
  71. ID                                       : 4
  72. Format                                   : PGS
  73. Muxing mode                              : zlib
  74. Codec ID                                 : S_HDMV/PGS
  75. Codec ID/Info                            : Picture based subtitle format used on BDs/HD-DVDs
  76. Duration                                 : 3 h 41 min
  77. Bit rate                                 : 18.9 kb/s
  78. Count of elements                        : 2502
  79. Stream size                              : 29.8 MiB (0%)
  80. Title                                    : Chinese-PGS
  81. Language                                 : Chinese
  82. Default                                  : No
  83. Forced                                   : No
  84. Menu
  85. 00:00:00.000                             : en:Chapter 01
  86. 00:22:24.083                             : en:Chapter 02
  87. 00:44:09.916                             : en:Chapter 03
  88. 01:06:57.666                             : en:Chapter 04
  89. 01:34:19.916                             : en:Chapter 05
  90. 01:54:58.916                             : en:Chapter 06
  91. 02:20:45.791                             : en:Chapter 07
  92. 02:48:13.125                             : en:Chapter 08
  93. 03:08:50.583                             : en:Chapter 09
  94. 03:34:43.000                             : en:Chapter 10
复制代码






                                       
                                       

                                       
                                       
                                       




回复

使用道具 举报

懒得打字嘛,点击右侧快捷回复 【右侧内容,后台自定义】
您需要登录后才可以回帖 登录 | 立即加入

本版积分规则

Archiver|小黑屋| 蓝光电影网 |网站地图

Copyright © 2021 Comsenz Inc. Powered by 蓝光电影网

蓝光电影网

本站内容由用户自主分享和转载自互联网,转载目的在于传递更多信息,并不代表本网赞同其观点和对其真实性负责。

如有侵权、违反国家法律政策行为,请联系我们,我们会第一时间及时清除和处理!

举报反馈邮箱:[email protected]

快速回复 返回顶部 返回列表