找回密码

蓝光电影网

查看: 17|回复: 0

[动作] 哥斯拉之终极战役 Godzilla.Final.Wars.2004.1080p.BluRay.x264-WaLMaRT 9.84GB

[复制链接]
蓝光币
515
发表于 2019-8-15 03:47:06 | 显示全部楼层 |阅读模式


◎译  名 哥斯拉之终极战争 / Godzilla: Final Wars / 哥吉拉最初战争 / 哥斯拉终极战
◎片  名 ゴジラ FINAL WARS
◎年  代 2004
◎产  地 日本 / 澳大利亚 / 美国 / 中国大陆
◎类  别 行动 / 科幻 / 惊悚 / 奇异 / 冒险
◎语  言 粤语 / 英语 / 日语
◎上映日期 2004-12-04(日本)
◎IMDb评分  6.5/10 from 6835 users
◎IMDb链接  http://www.imdb.com/title/tt0399102
◎豆瓣评分 6.4/10 from 1247 users
◎豆瓣链接 https://movie.douban.com/subject/1422931/
◎片  长 125分钟
◎导  演 北村龙平 Ry?hei Kitamura
◎编  剧 桐山勋 / 北村龙平 Ry?hei Kitamura / 富山省吾 Shogo Tomiyama / 三村涉
◎主  演 松冈昌宏 Masahiro Matsuoka
       北村一辉 Kazuki Kitamura
       唐·弗莱 Don Frye

◎标  签 哥斯拉 | 科幻 | 日本 | 怪兽 | 哥斯拉之终极战争 | 日本电影 | 2004 | 电影
◎简  介  
  数年前,人类以超级战舰“轰天号”,在南极击溃“哥吉拉”,而且将“哥吉拉”封印在地底下。可是地球除了“哥吉拉”之外,还有许很多多的怪兽,对各大人类都会虎视眈眈。因而,人类建立了“地球防卫部”,专门对于各类怪兽的入侵。而地球防卫部最强大的成员,就是昔时封印哥吉拉的“轰天号”以及其舰长“道格拉斯·戈登上校”。
  此外,为了对付怪兽对人类酿成的困扰,地球防卫部出格甄选了有特别才能的人类,这些“超人类”具有普通人类所没有的“M染色体”,让这些人类具有比普通人更强大的体能跟灵敏性,以对付怪兽的进犯,其中的佼佼者就是“尾崎真一少尉”。
  就在未几之前,人们挖到一个庞大怪物的遗骸,而且怪物具有机械跟生物的本质,思疑可以将生物跟机械连系起来的怪物应当来自于外太空。未几,尾崎真一收到来自婴儿岛“小美人”的警告,这个怪物是昔时被“魔斯拉”给封印的“盖刚”,盖刚的出现代表着人类的危机。
  就在盖刚出土未几,天下各地忽然在同一时候,遭遭到了各大怪物的进犯,一时之间让地球防卫部忙的焦头烂额。可是忽然出现的奥秘飞翔器,却将这些怪物全数都带走。这些自称“X星人”的外星来访客,声明自己是人类的朋友,要跟人类建立起同盟关系,更宣称有一个庞大的星球行将撞上地球。可是在尾崎真一还有道格拉斯等人的观察之下,发现底子就没有奥秘星球要撞击地球。而那些怪兽底子就是外星人侵犯地球所开释的,X星人底子是要把人类看成食粮来操纵。
  虽然外星人的真脸孔被揭穿,可是外星人具有不成思议的超才能,还有手下服从于外星人的庞大怪物。地球防卫军最初被消灭,只剩下轰天号还苟延残喘著。此时,道格拉斯想出一个大胆的计谋,就是解开南极哥吉拉的封印,让代表地球最强大怪物的哥吉拉,去面临这些外星来的侵犯者....
  1. Video
  2. ID                                       : 1
  3. Format                                   : AVC
  4. Format/Info                              : Advanced Video Codec
  5. Format profile                           : [email protected]
  6. Format settings                          : CABAC / 5 Ref Frames
  7. Format settings, CABAC                   : Yes
  8. Format settings, Reference frames        : 5 frames
  9. Codec ID                                 : V_MPEG4/ISO/AVC
  10. Duration                                 : 2 h 5 min
  11. Bit rate                                 : 8 227 kb/s
  12. Width                                    : 1 920 pixels
  13. Height                                   : 800 pixels
  14. Display aspect ratio                     : 2.40:1
  15. Frame rate mode                          : Constant
  16. Frame rate                               : 23.976 (24000/1001) FPS
  17. Color space                              : YUV
  18. Chroma subsampling                       : 4:2:0
  19. Bit depth                                : 8 bits
  20. Scan type                                : Progressive
  21. Bits/(Pixel*Frame)                       : 0.223
  22. Stream size                              : 7.00 GiB (71%)
  23. Writing library                          : x264 core 146 r2538 121396c
  24. Encoding settings                        : cabac=1 / ref=5 / deblock=1:-1:-1 / analyse=0x3:0x133 / me=umh / subme=7 / psy=1 / psy_rd=1.00:0.00 / mixed_ref=1 / me_range=16 / chroma_me=1 / trellis=1 / 8x8dct=1 / cqm=0 / deadzone=21,11 / fast_pskip=0 / chroma_qp_offset=-2 / threads=9 / lookahead_threads=1 / sliced_threads=0 / nr=0 / decimate=1 / interlaced=0 / bluray_compat=0 / constrained_intra=0 / bframes=3 / b_pyramid=2 / b_adapt=2 / b_bias=0 / direct=3 / weightb=1 / open_gop=0 / weightp=2 / keyint=240 / keyint_min=23 / scenecut=40 / intra_refresh=0 / rc_lookahead=50 / rc=2pass / mbtree=0 / bitrate=8227 / ratetol=1.0 / qcomp=0.60 / qpmin=10 / qpmax=51 / qpstep=4 / cplxblur=20.0 / qblur=0.5 / vbv_maxrate=62500 / vbv_bufsize=78125 / nal_hrd=none / filler=0 / ip_ratio=1.40 / pb_ratio=1.30 / aq=1:1.00
  25. Default                                  : Yes
  26. Forced                                   : No
  27. Audio #1
  28. ID                                       : 2
  29. Format                                   : DTS
  30. Format/Info                              : Digital Theater Systems
  31. Codec ID                                 : A_DTS
  32. Duration                                 : 2 h 5 min
  33. Bit rate mode                            : Constant
  34. Bit rate                                 : 1 509 kb/s
  35. Channel(s)                               : 6 channels
  36. Channel layout                           : C L R Ls Rs LFE
  37. Sampling rate                            : 48.0 kHz
  38. Frame rate                               : 93.750 FPS (512 SPF)
  39. Bit depth                                : 24 bits
  40. Compression mode                         : Lossy
  41. Stream size                              : 1.32 GiB (13%)
  42. Language                                 : Japanese
  43. Default                                  : Yes
  44. Forced                                   : No
  45. Audio #2
  46. ID                                       : 3
  47. Format                                   : DTS
  48. Format/Info                              : Digital Theater Systems
  49. Codec ID                                 : A_DTS
  50. Duration                                 : 2 h 5 min
  51. Bit rate mode                            : Constant
  52. Bit rate                                 : 1 509 kb/s
  53. Channel(s)                               : 6 channels
  54. Channel layout                           : C L R Ls Rs LFE
  55. Sampling rate                            : 48.0 kHz
  56. Frame rate                               : 93.750 FPS (512 SPF)
  57. Bit depth                                : 24 bits
  58. Compression mode                         : Lossy
  59. Stream size                              : 1.32 GiB (13%)
  60. Language                                 : English
  61. Default                                  : No
  62. Forced                                   : No
  63. Text
  64. ID                                       : 4
  65. Format                                   : UTF-8
  66. Codec ID                                 : S_TEXT/UTF8
  67. Codec ID/Info                            : UTF-8 Plain Text
  68. Language                                 : English
  69. Default                                  : Yes
  70. Forced                                   : No
  71. Menu
  72. 00:00:00.000                             : ja:00:00:00.000
  73. 00:07:52.806                             : ja:00:07:52.806
  74. 00:12:23.284                             : ja:00:12:23.284
  75. 00:18:52.757                             : ja:00:18:52.757
  76. 00:24:34.264                             : ja:00:24:34.264
  77. 00:34:03.875                             : ja:00:34:03.875
  78. 00:42:17.118                             : ja:00:42:17.118
  79. 00:51:56.947                             : ja:00:51:56.947
  80. 01:00:43.890                             : ja:01:00:43.890
  81. 01:08:11.587                             : ja:01:08:11.587
  82. 01:15:38.325                             : ja:01:15:38.325
  83. 01:25:02.931                             : ja:01:25:02.931
  84. 01:32:13.486                             : ja:01:32:13.486
  85. 01:40:56.092                             : ja:01:40:56.092
  86. 01:48:59.491                             : ja:01:48:59.491
  87. 01:55:56.283                             : ja:01:55:56.283
复制代码






                                       
                                       

                                       
                                       
                                       




回复

使用道具 举报

懒得打字嘛,点击右侧快捷回复 【右侧内容,后台自定义】
您需要登录后才可以回帖 登录 | 立即加入

本版积分规则

Archiver|小黑屋| 蓝光电影网 |网站地图

Copyright © 2021 Comsenz Inc. Powered by 蓝光电影网

蓝光电影网

本站内容由用户自主分享和转载自互联网,转载目的在于传递更多信息,并不代表本网赞同其观点和对其真实性负责。

如有侵权、违反国家法律政策行为,请联系我们,我们会第一时间及时清除和处理!

举报反馈邮箱:[email protected]

快速回复 返回顶部 返回列表