找回密码

蓝光电影网

查看: 20|回复: 0

[剧情] 轻舟英雄/轻舟敢死队 The.Cockleshell.Heroes.1955.1080p.BluRay.REMUX.AVC.LCPM.2.0-FGT 25.52GB

[复制链接]
蓝光币
519
发表于 2019-7-28 11:49:41 | 显示全部楼层 |阅读模式


◎译  名 轻舟豪杰 / 轻舟敢死队 / 轻舟突击队
◎片  名 The Cockleshell Heroes
◎年  代 1955
◎产  地 英国
◎类  别 剧情 / 行动 / 战争
◎语  言 英语 / 法语 / 德语
◎上映日期 1955
◎IMDb评分  6.7/10 from 1470 users
◎IMDb链接  http://www.imdb.com/title/tt0049083
◎豆瓣评分 6.6/10 from 64 users
◎豆瓣链接 https://movie.douban.com/subject/2372050/
◎片  长 USA: 97 分钟
◎导  演 José Ferrer
◎编  剧 Bryan Forbes / George Kent
◎主  演 José Ferrer
      Trevor Howard
      Dora Bryan

◎标  签 二战 | 英国 | 英国电影 | 战争 | 历史 | 50年月 | 典范老片 | 英國
◎简  介  
  一个英军预备役少校和一个经历丰富的上尉率领一队散漫的新兵去履行一项自杀性使命:完全摧毁一个位于德占法国的德军船坞。
影片基于实在故事,一队皇家水兵由潜艇送到法国吉伦特河口,他们从那边起头划小艇去打击所谓“攻不破”的口岸 - 波尔多港[三天航程]。他们完成了炸毁德军军舰和货轮的使命,下面的题目是他们若何逃走...
  1. Video
  2. ID                                       : 1
  3. Format                                   : AVC
  4. Format/Info                              : Advanced Video Codec
  5. Format profile                           : [email protected]
  6. Format settings                          : CABAC / 4 Ref Frames
  7. Format settings, CABAC                   : Yes
  8. Format settings, Reference frames        : 4 frames
  9. Codec ID                                 : V_MPEG4/ISO/AVC
  10. Duration                                 : 1 h 37 min
  11. Bit rate mode                            : Variable
  12. Bit rate                                 : 35.7 Mb/s
  13. Maximum bit rate                         : 35.0 Mb/s
  14. Width                                    : 1 920 pixels
  15. Height                                   : 1 080 pixels
  16. Display aspect ratio                     : 16:9
  17. Frame rate mode                          : Constant
  18. Frame rate                               : 23.976 (24000/1001) FPS
  19. Standard                                 : NTSC
  20. Color space                              : YUV
  21. Chroma subsampling                       : 4:2:0
  22. Bit depth                                : 8 bits
  23. Scan type                                : Progressive
  24. Bits/(Pixel*Frame)                       : 0.719
  25. Stream size                              : 24.5 GiB (96%)
  26. Title                                    : The.Cockleshell.Heroes.1955.1080p.BluRay.REMUX.AVC.LCPM.2.0-FGT
  27. Language                                 : English
  28. Default                                  : No
  29. Forced                                   : No
  30. Color range                              : Limited
  31. Color primaries                          : BT.709
  32. Transfer characteristics                 : BT.709
  33. Matrix coefficients                      : BT.709
  34. Audio
  35. ID                                       : 2
  36. Format                                   : PCM
  37. Format settings                          : Little / Signed
  38. Codec ID                                 : A_PCM/INT/LIT
  39. Duration                                 : 1 h 37 min
  40. Bit rate mode                            : Constant
  41. Bit rate                                 : 1 536 kb/s
  42. Channel(s)                               : 2 channels
  43. Sampling rate                            : 48.0 kHz
  44. Frame rate                               : 30.000 FPS (1600 SPF)
  45. Bit depth                                : 16 bits
  46. Stream size                              : 1.05 GiB (4%)
  47. Title                                    : The.Cockleshell.Heroes.1955.1080p.BluRay.REMUX.AVC.LCPM.2.0-FGT
  48. Language                                 : English
  49. Default                                  : Yes
  50. Forced                                   : No
  51. Text
  52. ID                                       : 3
  53. Format                                   : PGS
  54. Muxing mode                              : zlib
  55. Codec ID                                 : S_HDMV/PGS
  56. Codec ID/Info                            : Picture based subtitle format used on BDs/HD-DVDs
  57. Duration                                 : 1 h 37 min
  58. Bit rate                                 : 34.8 kb/s
  59. Count of elements                        : 1678
  60. Stream size                              : 24.3 MiB (0%)
  61. Title                                    : English-PGS
  62. Language                                 : English
  63. Default                                  : Yes
  64. Forced                                   : No
  65. Menu
  66. 00:00:00.000                             : en:Chapter 01
  67. 00:08:29.675                             : en:Chapter 02
  68. 00:17:46.398                             : en:Chapter 03
  69. 00:25:10.592                             : en:Chapter 04
  70. 00:31:55.330                             : en:Chapter 05
  71. 00:42:08.484                             : en:Chapter 06
  72. 00:51:06.730                             : en:Chapter 07
  73. 00:59:04.749                             : en:Chapter 08
  74. 01:07:07.940                             : en:Chapter 09
  75. 01:15:11.924                             : en:Chapter 10
  76. 01:20:46.925                             : en:Chapter 11
  77. 01:30:13.533                             : en:Chapter 12
复制代码






                                       
                                       

                                       
                                       
                                       




回复

使用道具 举报

懒得打字嘛,点击右侧快捷回复 【右侧内容,后台自定义】
您需要登录后才可以回帖 登录 | 立即加入

本版积分规则

Archiver|小黑屋| 蓝光电影网 |网站地图

Copyright © 2021 Comsenz Inc. Powered by 蓝光电影网

蓝光电影网

本站内容由用户自主分享和转载自互联网,转载目的在于传递更多信息,并不代表本网赞同其观点和对其真实性负责。

如有侵权、违反国家法律政策行为,请联系我们,我们会第一时间及时清除和处理!

举报反馈邮箱:[email protected]

快速回复 返回顶部 返回列表