找回密码

蓝光电影网

查看: 19|回复: 0

[喜剧] 十六支蜡烛/少女十五十六时 Sixteen.Candles.1984.EXTENDED.1080p.BluRay.REMUX.AVC.DTS-HD.MA.5.1-FGT 25.51GB

[复制链接]
蓝光币
515
发表于 2019-7-28 11:40:58 | 显示全部楼层 |阅读模式


◎译  名 十六支烛炬 / 少女十五十六时
◎片  名 Sixteen Candles
◎年  代 1984
◎产  地 美国
◎类  别 笑剧 / 恋爱
◎语  言 英语
◎上映日期 1984-05-04(美国)
◎IMDb评分  7.1/10 from 94731 users
◎IMDb链接  http://www.imdb.com/title/tt0088128
◎豆瓣评分 6.9/10 from 1226 users
◎豆瓣链接 https://movie.douban.com/subject/1300813/
◎片  长 93 分钟
◎导  演 约翰·休斯 John Hughes
◎编  剧 约翰·休斯 John Hughes
◎主  演 莫利·林沃德 Molly Ringwald
      安东尼·迈克尔·豪尔 Anthony Michael Hall
      Michael Schoeffling
      约翰·库萨克 John Cusack

◎标  签 青春 | 美国 | 笑剧 | 恋爱 | 美国电影 | 1980s | JohnHughes | 1984
◎简  介  
  由美国著名导演约翰·休斯 (John Hughes)于1984年执导拍摄的青春笑剧片。影片报告了一个十五岁的女孩Samantha的生活,由于姐姐的成婚,兴奋的家人忘记了她的生日,暗恋的男孩是黉舍最受接待的,但自己却被一个使人厌恶的男孩喜好,她的生活似乎正在走下坡路。
  1. Video
  2. ID                                       : 1
  3. Format                                   : AVC
  4. Format/Info                              : Advanced Video Codec
  5. Format profile                           : [email protected]
  6. Format settings                          : CABAC / 3 Ref Frames
  7. Format settings, CABAC                   : Yes
  8. Format settings, Reference frames        : 3 frames
  9. Codec ID                                 : V_MPEG4/ISO/AVC
  10. Duration                                 : 1 h 34 min
  11. Bit rate mode                            : Variable
  12. Bit rate                                 : 33.7 Mb/s
  13. Maximum bit rate                         : 35.0 Mb/s
  14. Width                                    : 1 920 pixels
  15. Height                                   : 1 080 pixels
  16. Display aspect ratio                     : 16:9
  17. Frame rate mode                          : Constant
  18. Frame rate                               : 23.976 (24000/1001) FPS
  19. Color space                              : YUV
  20. Chroma subsampling                       : 4:2:0
  21. Bit depth                                : 8 bits
  22. Scan type                                : Progressive
  23. Bits/(Pixel*Frame)                       : 0.679
  24. Stream size                              : 22.2 GiB (87%)
  25. Title                                    : Sixteen.Candles.1984.EXTENDED.1080p.BluRay.REMUX.AVC.DTS-HD.MA.5.1-FGT
  26. Language                                 : English
  27. Default                                  : No
  28. Forced                                   : No
  29. Color range                              : Limited
  30. Color primaries                          : BT.709
  31. Transfer characteristics                 : BT.709
  32. Matrix coefficients                      : BT.709
  33. Audio #1
  34. ID                                       : 2
  35. Format                                   : DTS XLL
  36. Format/Info                              : Digital Theater Systems
  37. Commercial name                          : DTS-HD Master Audio
  38. Codec ID                                 : A_DTS
  39. Duration                                 : 1 h 34 min
  40. Bit rate mode                            : Variable
  41. Bit rate                                 : 2 955 kb/s
  42. Channel(s)                               : 6 channels
  43. Channel layout                           : C L R Ls Rs LFE
  44. Sampling rate                            : 48.0 kHz
  45. Frame rate                               : 93.750 FPS (512 SPF)
  46. Bit depth                                : 24 bits
  47. Compression mode                         : Lossless
  48. Stream size                              : 1.94 GiB (8%)
  49. Title                                    : Sixteen.Candles.1984.EXTENDED.1080p.BluRay.REMUX.AVC.DTS-HD.MA.5.1-FGT
  50. Language                                 : English
  51. Default                                  : Yes
  52. Forced                                   : No
  53. Audio #2
  54. ID                                       : 3
  55. Format                                   : DTS XLL
  56. Format/Info                              : Digital Theater Systems
  57. Commercial name                          : DTS-HD Master Audio
  58. Codec ID                                 : A_DTS
  59. Duration                                 : 1 h 34 min
  60. Bit rate mode                            : Variable
  61. Bit rate                                 : 1 078 kb/s
  62. Channel(s)                               : 1 channel
  63. Channel layout                           : C
  64. Sampling rate                            : 48.0 kHz
  65. Frame rate                               : 93.750 FPS (512 SPF)
  66. Bit depth                                : 24 bits
  67. Compression mode                         : Lossless
  68. Stream size                              : 725 MiB (3%)
  69. Title                                    : Sixteen.Candles.1984.EXTENDED.1080p.BluRay.REMUX.AVC.DTS-HD.MA.5.1-FGT
  70. Language                                 : English
  71. Default                                  : No
  72. Forced                                   : No
  73. Audio #3
  74. ID                                       : 4
  75. Format                                   : DTS XLL
  76. Format/Info                              : Digital Theater Systems
  77. Commercial name                          : DTS-HD Master Audio
  78. Codec ID                                 : A_DTS
  79. Duration                                 : 1 h 34 min
  80. Bit rate mode                            : Variable
  81. Bit rate                                 : 1 053 kb/s
  82. Channel(s)                               : 1 channel
  83. Channel layout                           : C
  84. Sampling rate                            : 48.0 kHz
  85. Frame rate                               : 93.750 FPS (512 SPF)
  86. Bit depth                                : 24 bits
  87. Compression mode                         : Lossless
  88. Stream size                              : 708 MiB (3%)
  89. Title                                    : Sixteen.Candles.1984.EXTENDED.1080p.BluRay.REMUX.AVC.DTS-HD.MA.5.1-FGT
  90. Language                                 : English
  91. Default                                  : No
  92. Forced                                   : No
  93. Text
  94. ID                                       : 5
  95. Format                                   : PGS
  96. Muxing mode                              : zlib
  97. Codec ID                                 : S_HDMV/PGS
  98. Codec ID/Info                            : Picture based subtitle format used on BDs/HD-DVDs
  99. Duration                                 : 1 h 33 min
  100. Bit rate                                 : 42.9 kb/s
  101. Count of elements                        : 2714
  102. Stream size                              : 28.8 MiB (0%)
  103. Title                                    : English-PGS
  104. Language                                 : English
  105. Default                                  : Yes
  106. Forced                                   : No
  107. Menu
  108. 00:00:00.000                             : en:Chapter 01
  109. 00:10:10.943                             : en:Chapter 02
  110. 00:16:38.288                             : en:Chapter 03
  111. 00:24:20.375                             : en:Chapter 04
  112. 00:31:43.401                             : en:Chapter 05
  113. 00:39:45.007                             : en:Chapter 06
  114. 00:47:13.914                             : en:Chapter 07
  115. 00:55:11.141                             : en:Chapter 08
  116. 01:02:45.094                             : en:Chapter 09
  117. 01:11:45.217                             : en:Chapter 10
  118. 01:19:43.320                             : en:Chapter 11
  119. 01:25:49.686                             : en:Chapter 12
复制代码






                                       
                                       

                                       
                                       
                                       




回复

使用道具 举报

懒得打字嘛,点击右侧快捷回复 【右侧内容,后台自定义】
您需要登录后才可以回帖 登录 | 立即加入

本版积分规则

Archiver|小黑屋| 蓝光电影网 |网站地图

Copyright © 2021 Comsenz Inc. Powered by 蓝光电影网

蓝光电影网

本站内容由用户自主分享和转载自互联网,转载目的在于传递更多信息,并不代表本网赞同其观点和对其真实性负责。

如有侵权、违反国家法律政策行为,请联系我们,我们会第一时间及时清除和处理!

举报反馈邮箱:[email protected]

快速回复 返回顶部 返回列表