找回密码

蓝光电影网

查看: 14|回复: 0

[其他] 拾穗者 The.Gleaners.and.I.2000.FRENCH.1080p.BluRay.x264-HANDJOB 6.17GB

[复制链接]
蓝光币
511
发表于 2020-9-25 20:16:11 | 显示全部楼层 |阅读模式


◎译  名 拾穗者/The Gleaners & I/同是天涯拾荒客/我和拾穗者/拾穗者与我(港)/拾荒者/艾格妮捡风光(台)
◎片  名 Les glaneurs et la glaneuse
◎年  代 2000
◎产  地 法国
◎类  别 记载片
◎语  言 法语
◎上映日期 2000-07-07(法国)
◎IMDb评分  7.7/10 from 5804 users
◎IMDb链接  https://www.imdb.com/title/tt0247380/
◎豆瓣评分 8.9/10 from 4660 users
◎豆瓣链接 https://movie.douban.com/subject/1301279/
◎片  长 82 分钟
◎导  演 阿涅斯·瓦尔达 Agnès Varda
◎编  剧 阿涅斯·瓦尔达 Agnès Varda
◎主  演 阿涅斯·瓦尔达 Agnès Varda
       博登·利特南斯基 Bodan Litnanski
◎标  签 记载片 | 法国 | 阿涅斯·瓦尔达 | 新浪潮 | AgnèsVarda | 法国电影 | 瓦尔达 | 2000
◎简  介


  1998年12月至1999年4月,年过七旬的阿涅斯·瓦尔达带着数码摄像机在法国的城市和村落“闲逛”的进程中,拍摄了一些关于现今时代法国拾荒者们的影象:流浪汉和生活贫苦的报酬保持生存拣拾各类生活必须品,艺术家们从废铜烂铁堆里寻觅缔造艺术作品的质料,喜好拾荒的人的动机是出于否决浪费的道德。除了拾荒,影片还有一条游离于主线之外的副线,表示了一些概况看来与拾荒绝不相关、实在关系亲近的人和事,比如采访一位兼做心理医生的葡萄园主,与发现电影的先驱者之一马莱的后代议论电影题目。此外,本片还是一幅影片作者的自画像,瓦尔达不时从镜头前面走到镜头前面,即使当她在镜头前面时也成心地适度表示自己,而且有些镜头是她亲身拍摄的。
  
  这部受19世纪法国画家米勒的名画《拾穗者》启发而拍摄的记载片,描画了法国现今时代的拾荒者形象。在瓦尔达看来,五花八门的拾荒者大致分为三类:“有些人拾荒是由于他们被生活所迫,有些人拾荒是由于他们是艺术家,有些人拾荒是由于他们喜好拾荒。”本片的完整片名是“拾荒者们和女拾荒者”,其中“女拾荒者”是指瓦尔达本人。影片中的一切人都在拾荒,瓦尔达本人也是拾荒,她在拣拾被人忘记的记忆。本片的艺术成就不但表示在瓦尔达创作了一部以第一人称叙事的尝试性数码记载片,而且表示在影片作者奇妙地把握了“唯我”与“主观”以及电影作者的“自我”与被拍摄的社会现实中的“他人”之间的纤细界限。这部影片是用DV拍摄的,然后扩转成35毫米电影胶片刊行,已经在30个月的时候里获得过30个奖。(
  1. Video
  2. ID                                       : 1
  3. Format                                   : AVC
  4. Format/Info                              : Advanced Video Codec
  5. Format profile                           : [email protected]
  6. Format settings                          : CABAC / 5 Ref Frames
  7. Format settings, CABAC                   : Yes
  8. Format settings, Reference frames        : 5 frames
  9. Codec ID                                 : V_MPEG4/ISO/AVC
  10. Duration                                 : 1 h 22 min
  11. Bit rate                                 : 10.2 Mb/s
  12. Width                                    : 1 440 pixels
  13. Height                                   : 1 080 pixels
  14. Display aspect ratio                     : 4:3
  15. Frame rate mode                          : Constant
  16. Frame rate                               : 23.976 (24000/1001/189150) FPS
  17. Color space                              : YUV
  18. Chroma subsampling                       : 4:2:0
  19. Bit depth                                : 8 bits
  20. Scan type                                : Progressive
  21. Bits/(Pixel*Frame)                       : 0.273
  22. Stream size                              : 5.87 GiB (95%)
  23. Writing library                          : x264 core 157 r2935 545de2f
  24. Encoding settings                        : cabac=1 / ref=5 / deblock=1:-3:-3 / analyse=0x3:0x133 / me=umh / subme=10 / psy=1 / psy_rd=1.00:0.00 / mixed_ref=1 / me_range=32 / chroma_me=1 / trellis=2 / 8x8dct=1 / cqm=0 / deadzone=21,11 / fast_pskip=0 / chroma_qp_offset=-2 / threads=12 / lookahead_threads=3 / sliced_threads=0 / nr=0 / decimate=0 / interlaced=0 / bluray_compat=0 / constrained_intra=0 / bframes=16 / b_pyramid=2 / b_adapt=2 / b_bias=0 / direct=3 / weightb=1 / open_gop=0 / weightp=2 / keyint=240 / keyint_min=24 / scenecut=40 / intra_refresh=0 / rc_lookahead=60 / rc=crf / mbtree=0 / crf=20.2 / qcomp=0.60 / qpmin=0 / qpmax=69 / qpstep=4 / vbv_maxrate=62500 / vbv_bufsize=78125 / crf_max=0.0 / nal_hrd=none / filler=0 / ip_ratio=1.40 / pb_ratio=1.30 / aq=2:1.00
  25. Default                                  : Yes
  26. Forced                                   : No
  27. Color range                              : Limited
  28. Color primaries                          : BT.709
  29. Transfer characteristics                 : BT.709
  30. Matrix coefficients                      : BT.709
  31. Audio
  32. ID                                       : 2
  33. Format                                   : FLAC
  34. Format/Info                              : Free Lossless Audio Codec
  35. Codec ID                                 : A_FLAC
  36. Duration                                 : 1 h 22 min
  37. Bit rate mode                            : Variable
  38. Bit rate                                 : 527 kb/s
  39. Channel(s)                               : 2 channels
  40. Channel layout                           : L R
  41. Sampling rate                            : 48.0 kHz
  42. Frame rate                               : 11.719 FPS (4096 SPF)
  43. Bit depth                                : 16 bits
  44. Compression mode                         : Lossless
  45. Stream size                              : 311 MiB (5%)
  46. Writing library                          : libFLAC 1.2.1 (UTC 2007-09-17)
  47. Language                                 : French
  48. Default                                  : Yes
  49. Forced                                   : No
  50. Text
  51. ID                                       : 3
  52. Format                                   : UTF-8
  53. Codec ID                                 : S_TEXT/UTF8
  54. Codec ID/Info                            : UTF-8 Plain Text
  55. Duration                                 : 1 h 20 min
  56. Bit rate                                 : 71 b/s
  57. Count of elements                        : 1120
  58. Stream size                              : 42.1 KiB (0%)
  59. Language                                 : English
  60. Default                                  : Yes
  61. Forced                                   : No
  62. Menu
  63. 00:00:00.000                             : :G as in "gleaner"
  64. 00:06:37.397                             : :Potatoes and trailers
  65. 00:18:57.136                             : :Thrifty Edouard
  66. 00:21:35.252                             : :Burgundy grapes
  67. 00:27:10.337                             : :The rights of gleaners
  68. 00:33:19.331                             : :Gleaning memories
  69. 00:35:13.528                             : :VR99
  70. 00:39:02.423                             : :Findings
  71. 00:43:16.719                             : :Noirmoutier and Nenons
  72. 00:50:14.178                             : :La Folie
  73. 00:52:52.586                             : :A gang, rubber boots and M. Plisquellec
  74. 01:04:18.396                             : :Gleaning vs. salvaging
  75. 01:13:31.157                             : :After hours
  76. 01:20:21.692                             : :Gleaners Fleeing Before the Storm
复制代码






                                       
                                       

                                       
                                       
                                       




回复

使用道具 举报

懒得打字嘛,点击右侧快捷回复 【右侧内容,后台自定义】
您需要登录后才可以回帖 登录 | 立即加入

本版积分规则

Archiver|小黑屋| 蓝光电影网 |网站地图

Copyright © 2021 Comsenz Inc. Powered by 蓝光电影网

蓝光电影网

本站内容由用户自主分享和转载自互联网,转载目的在于传递更多信息,并不代表本网赞同其观点和对其真实性负责。

如有侵权、违反国家法律政策行为,请联系我们,我们会第一时间及时清除和处理!

举报反馈邮箱:[email protected]

快速回复 返回顶部 返回列表