找回密码

蓝光电影网

查看: 22|回复: 0

[剧情] 侵入者 The.Intruder.2019.1080p.BluRay.REMUX.AVC.DTS-HD.MA.5.1-FGT 25.21GB

[复制链接]
蓝光币
515
发表于 2019-7-24 00:31:32 | 显示全部楼层 |阅读模式


◎译  名 侵入者
◎片  名 The Intruder
◎年  代 2019
◎产  地 美国
◎类  别 剧情 / 悬疑 / 惊悚
◎语  言 英语
◎上映日期 2019-05-03(美国)
◎IMDb评分  5.3/10 from 2759 users
◎IMDb链接  http://www.imdb.com/title/tt6722030
◎豆瓣评分 6.0/10 from 169 users
◎豆瓣链接 https://movie.douban.com/subject/30382373/
◎片  长 102分钟
◎导  演 德翁·泰勒 Deon Taylor
◎编  剧 戴维·朗格利 David Loughery
◎主  演 梅根·古德 Meagan Good
      丹尼斯·奎德 Dennis Quaid
      迈克尔·伊雷 Michael Ealy
      约瑟夫·斯科拉 Joseph Sikora
      阿尔维娜·奥古斯特 Alvina August
      德布斯·霍华德 Debs Howard
      莉莉·塞佩 Lili Sepe

◎标  签 惊悚 | 美国 | 2019 | 可骇 | 英语 | 欧美 | 剧情 | 影院
◎简  介  
  这是一部心理惊悚片,报告了一对年轻的已婚佳耦在几英亩地盘上买了一栋标致的纳帕谷屋子,成果他们却发现卖家拒断交房。
  1. Video
  2. ID                                       : 1
  3. Format                                   : AVC
  4. Format/Info                              : Advanced Video Codec
  5. Format profile                           : [email protected]
  6. Format settings                          : CABAC / 2 Ref Frames
  7. Format settings, CABAC                   : Yes
  8. Format settings, Reference frames        : 2 frames
  9. Format settings, GOP                     : M=1, N=10
  10. Codec ID                                 : V_MPEG4/ISO/AVC
  11. Duration                                 : 1 h 42 min
  12. Bit rate mode                            : Variable
  13. Bit rate                                 : 24.9 Mb/s
  14. Width                                    : 1 920 pixels
  15. Height                                   : 1 080 pixels
  16. Display aspect ratio                     : 16:9
  17. Frame rate mode                          : Constant
  18. Frame rate                               : 23.976 (24000/1001) FPS
  19. Color space                              : YUV
  20. Chroma subsampling                       : 4:2:0
  21. Bit depth                                : 8 bits
  22. Scan type                                : Progressive
  23. Bits/(Pixel*Frame)                       : 0.502
  24. Stream size                              : 17.8 GiB (70%)
  25. Title                                    : The.Intruder.2019.1080p.BluRay.REMUX.AVC.DTS-HD.MA.5.1-FGT
  26. Language                                 : English
  27. Default                                  : No
  28. Forced                                   : No
  29. Audio #1
  30. ID                                       : 2
  31. Format                                   : DTS XLL
  32. Format/Info                              : Digital Theater Systems
  33. Commercial name                          : DTS-HD Master Audio
  34. Codec ID                                 : A_DTS
  35. Duration                                 : 1 h 42 min
  36. Bit rate mode                            : Variable
  37. Bit rate                                 : 2 166 kb/s
  38. Channel(s)                               : 6 channels
  39. Channel layout                           : C L R Ls Rs LFE
  40. Sampling rate                            : 48.0 kHz
  41. Frame rate                               : 93.750 FPS (512 SPF)
  42. Bit depth                                : 16 bits
  43. Compression mode                         : Lossless
  44. Stream size                              : 1.54 GiB (6%)
  45. Title                                    : The.Intruder.2019.1080p.BluRay.REMUX.AVC.DTS-HD.MA.5.1-FGT
  46. Language                                 : English
  47. Default                                  : Yes
  48. Forced                                   : No
  49. Audio #2
  50. ID                                       : 3
  51. Format                                   : AC-3
  52. Format/Info                              : Audio Coding 3
  53. Commercial name                          : Dolby Digital
  54. Codec ID                                 : A_AC3
  55. Duration                                 : 1 h 42 min
  56. Bit rate mode                            : Constant
  57. Bit rate                                 : 640 kb/s
  58. Channel(s)                               : 6 channels
  59. Channel layout                           : L R C LFE Ls Rs
  60. Sampling rate                            : 48.0 kHz
  61. Frame rate                               : 31.250 FPS (1536 SPF)
  62. Bit depth                                : 16 bits
  63. Compression mode                         : Lossy
  64. Stream size                              : 467 MiB (2%)
  65. Title                                    : The.Intruder.2019.1080p.BluRay.REMUX.AVC.DTS-HD.MA.5.1-FGT
  66. Language                                 : English
  67. Service kind                             : Complete Main
  68. Default                                  : No
  69. Forced                                   : No
  70. Audio #3
  71. ID                                       : 4
  72. Format                                   : AC-3
  73. Format/Info                              : Audio Coding 3
  74. Commercial name                          : Dolby Digital
  75. Codec ID                                 : A_AC3
  76. Duration                                 : 1 h 42 min
  77. Bit rate mode                            : Constant
  78. Bit rate                                 : 640 kb/s
  79. Channel(s)                               : 6 channels
  80. Channel layout                           : L R C LFE Ls Rs
  81. Sampling rate                            : 48.0 kHz
  82. Frame rate                               : 31.250 FPS (1536 SPF)
  83. Bit depth                                : 16 bits
  84. Compression mode                         : Lossy
  85. Stream size                              : 467 MiB (2%)
  86. Title                                    : The.Intruder.2019.1080p.BluRay.REMUX.AVC.DTS-HD.MA.5.1-FGT
  87. Language                                 : English
  88. Service kind                             : Complete Main
  89. Default                                  : No
  90. Forced                                   : No
  91. Audio #4
  92. ID                                       : 5
  93. Format                                   : AC-3
  94. Format/Info                              : Audio Coding 3
  95. Commercial name                          : Dolby Digital
  96. Codec ID                                 : A_AC3
  97. Duration                                 : 1 h 42 min
  98. Bit rate mode                            : Constant
  99. Bit rate                                 : 640 kb/s
  100. Channel(s)                               : 6 channels
  101. Channel layout                           : L R C LFE Ls Rs
  102. Sampling rate                            : 48.0 kHz
  103. Frame rate                               : 31.250 FPS (1536 SPF)
  104. Bit depth                                : 16 bits
  105. Compression mode                         : Lossy
  106. Stream size                              : 467 MiB (2%)
  107. Title                                    : The.Intruder.2019.1080p.BluRay.REMUX.AVC.DTS-HD.MA.5.1-FGT
  108. Language                                 : French
  109. Service kind                             : Complete Main
  110. Default                                  : No
  111. Forced                                   : No
  112. Audio #5
  113. ID                                       : 6
  114. Format                                   : AC-3
  115. Format/Info                              : Audio Coding 3
  116. Commercial name                          : Dolby Digital
  117. Codec ID                                 : A_AC3
  118. Duration                                 : 1 h 42 min
  119. Bit rate mode                            : Constant
  120. Bit rate                                 : 640 kb/s
  121. Channel(s)                               : 6 channels
  122. Channel layout                           : L R C LFE Ls Rs
  123. Sampling rate                            : 48.0 kHz
  124. Frame rate                               : 31.250 FPS (1536 SPF)
  125. Bit depth                                : 16 bits
  126. Compression mode                         : Lossy
  127. Stream size                              : 467 MiB (2%)
  128. Title                                    : The.Intruder.2019.1080p.BluRay.REMUX.AVC.DTS-HD.MA.5.1-FGT
  129. Language                                 : French
  130. Service kind                             : Complete Main
  131. Default                                  : No
  132. Forced                                   : No
  133. Audio #6
  134. ID                                       : 7
  135. Format                                   : AC-3
  136. Format/Info                              : Audio Coding 3
  137. Commercial name                          : Dolby Digital
  138. Codec ID                                 : A_AC3
  139. Duration                                 : 1 h 42 min
  140. Bit rate mode                            : Constant
  141. Bit rate                                 : 640 kb/s
  142. Channel(s)                               : 6 channels
  143. Channel layout                           : L R C LFE Ls Rs
  144. Sampling rate                            : 48.0 kHz
  145. Frame rate                               : 31.250 FPS (1536 SPF)
  146. Bit depth                                : 16 bits
  147. Compression mode                         : Lossy
  148. Stream size                              : 467 MiB (2%)
  149. Title                                    : The.Intruder.2019.1080p.BluRay.REMUX.AVC.DTS-HD.MA.5.1-FGT
  150. Language                                 : Russian
  151. Service kind                             : Complete Main
  152. Default                                  : No
  153. Forced                                   : No
  154. Audio #7
  155. ID                                       : 8
  156. Format                                   : DTS XLL
  157. Format/Info                              : Digital Theater Systems
  158. Commercial name                          : DTS-HD Master Audio
  159. Codec ID                                 : A_DTS
  160. Duration                                 : 1 h 42 min
  161. Bit rate mode                            : Variable
  162. Bit rate                                 : 2 166 kb/s
  163. Channel(s)                               : 6 channels
  164. Channel layout                           : C L R Ls Rs LFE
  165. Sampling rate                            : 48.0 kHz
  166. Frame rate                               : 93.750 FPS (512 SPF)
  167. Bit depth                                : 16 bits
  168. Compression mode                         : Lossless
  169. Stream size                              : 1.54 GiB (6%)
  170. Title                                    : The.Intruder.2019.1080p.BluRay.REMUX.AVC.DTS-HD.MA.5.1-FGT
  171. Language                                 : Spanish
  172. Default                                  : No
  173. Forced                                   : No
  174. Audio #8
  175. ID                                       : 9
  176. Format                                   : DTS
  177. Format/Info                              : Digital Theater Systems
  178. Codec ID                                 : A_DTS
  179. Duration                                 : 1 h 42 min
  180. Bit rate mode                            : Constant
  181. Bit rate                                 : 1 509 kb/s
  182. Channel(s)                               : 6 channels
  183. Channel layout                           : C L R Ls Rs LFE
  184. Sampling rate                            : 48.0 kHz
  185. Frame rate                               : 93.750 FPS (512 SPF)
  186. Bit depth                                : 16 bits
  187. Compression mode                         : Lossy
  188. Stream size                              : 1.08 GiB (4%)
  189. Title                                    : The.Intruder.2019.1080p.BluRay.REMUX.AVC.DTS-HD.MA.5.1-FGT
  190. Language                                 : Spanish
  191. Default                                  : No
  192. Forced                                   : No
  193. Audio #9
  194. ID                                       : 10
  195. Format                                   : AC-3
  196. Format/Info                              : Audio Coding 3
  197. Commercial name                          : Dolby Digital
  198. Codec ID                                 : A_AC3
  199. Duration                                 : 1 h 42 min
  200. Bit rate mode                            : Constant
  201. Bit rate                                 : 640 kb/s
  202. Channel(s)                               : 6 channels
  203. Channel layout                           : L R C LFE Ls Rs
  204. Sampling rate                            : 48.0 kHz
  205. Frame rate                               : 31.250 FPS (1536 SPF)
  206. Bit depth                                : 16 bits
  207. Compression mode                         : Lossy
  208. Stream size                              : 467 MiB (2%)
  209. Title                                    : The.Intruder.2019.1080p.BluRay.REMUX.AVC.DTS-HD.MA.5.1-FGT
  210. Language                                 : Spanish
  211. Service kind                             : Complete Main
  212. Default                                  : No
  213. Forced                                   : No
  214. Audio #10
  215. ID                                       : 11
  216. Format                                   : AC-3
  217. Format/Info                              : Audio Coding 3
  218. Commercial name                          : Dolby Digital
  219. Codec ID                                 : A_AC3
  220. Duration                                 : 1 h 42 min
  221. Bit rate mode                            : Constant
  222. Bit rate                                 : 192 kb/s
  223. Channel(s)                               : 2 channels
  224. Channel layout                           : L R
  225. Sampling rate                            : 48.0 kHz
  226. Frame rate                               : 31.250 FPS (1536 SPF)
  227. Bit depth                                : 16 bits
  228. Compression mode                         : Lossy
  229. Stream size                              : 140 MiB (1%)
  230. Title                                    : The.Intruder.2019.1080p.BluRay.REMUX.AVC.DTS-HD.MA.5.1-FGT
  231. Language                                 : English
  232. Service kind                             : Complete Main
  233. Default                                  : No
  234. Forced                                   : No
  235. Text #1
  236. ID                                       : 12
  237. Format                                   : UTF-8
  238. Codec ID                                 : S_TEXT/UTF8
  239. Codec ID/Info                            : UTF-8 Plain Text
  240. Duration                                 : 1 h 34 min
  241. Bit rate                                 : 62 b/s
  242. Count of elements                        : 1499
  243. Stream size                              : 43.2 KiB (0%)
  244. Title                                    : English-SRT
  245. Language                                 : English
  246. Default                                  : Yes
  247. Forced                                   : No
  248. Text #2
  249. ID                                       : 13
  250. Format                                   : PGS
  251. Muxing mode                              : zlib
  252. Codec ID                                 : S_HDMV/PGS
  253. Codec ID/Info                            : Picture based subtitle format used on BDs/HD-DVDs
  254. Duration                                 : 1 h 36 min
  255. Bit rate                                 : 41.2 kb/s
  256. Count of elements                        : 3149
  257. Stream size                              : 28.6 MiB (0%)
  258. Title                                    : English-SDH-PGS
  259. Language                                 : English
  260. Default                                  : No
  261. Forced                                   : No
  262. Text #3
  263. ID                                       : 14
  264. Format                                   : PGS
  265. Muxing mode                              : zlib
  266. Codec ID                                 : S_HDMV/PGS
  267. Codec ID/Info                            : Picture based subtitle format used on BDs/HD-DVDs
  268. Duration                                 : 1 h 34 min
  269. Bit rate                                 : 37.1 kb/s
  270. Count of elements                        : 2728
  271. Stream size                              : 25.2 MiB (0%)
  272. Title                                    : English-PGS
  273. Language                                 : English
  274. Default                                  : No
  275. Forced                                   : No
  276. Text #4
  277. ID                                       : 15
  278. Format                                   : PGS
  279. Muxing mode                              : zlib
  280. Codec ID                                 : S_HDMV/PGS
  281. Codec ID/Info                            : Picture based subtitle format used on BDs/HD-DVDs
  282. Duration                                 : 1 h 36 min
  283. Bit rate                                 : 41.2 kb/s
  284. Count of elements                        : 3155
  285. Stream size                              : 28.6 MiB (0%)
  286. Title                                    : English-SDH-PGS
  287. Language                                 : English
  288. Default                                  : No
  289. Forced                                   : No
  290. Text #5
  291. ID                                       : 16
  292. Format                                   : PGS
  293. Muxing mode                              : zlib
  294. Codec ID                                 : S_HDMV/PGS
  295. Codec ID/Info                            : Picture based subtitle format used on BDs/HD-DVDs
  296. Duration                                 : 1 h 34 min
  297. Bit rate                                 : 37.1 kb/s
  298. Count of elements                        : 2736
  299. Stream size                              : 25.2 MiB (0%)
  300. Title                                    : English-PGS
  301. Language                                 : English
  302. Default                                  : No
  303. Forced                                   : No
  304. Text #6
  305. ID                                       : 17
  306. Format                                   : PGS
  307. Muxing mode                              : zlib
  308. Codec ID                                 : S_HDMV/PGS
  309. Codec ID/Info                            : Picture based subtitle format used on BDs/HD-DVDs
  310. Duration                                 : 1 h 40 min
  311. Bit rate                                 : 27.6 kb/s
  312. Count of elements                        : 2460
  313. Stream size                              : 19.9 MiB (0%)
  314. Title                                    : Chinese-PGS
  315. Language                                 : Chinese
  316. Default                                  : No
  317. Forced                                   : No
  318. Text #7
  319. ID                                       : 18
  320. Format                                   : PGS
  321. Muxing mode                              : zlib
  322. Codec ID                                 : S_HDMV/PGS
  323. Codec ID/Info                            : Picture based subtitle format used on BDs/HD-DVDs
  324. Duration                                 : 1 h 40 min
  325. Bit rate                                 : 29.5 kb/s
  326. Count of elements                        : 2736
  327. Stream size                              : 21.2 MiB (0%)
  328. Title                                    : Chinese-PGS
  329. Language                                 : Chinese
  330. Default                                  : No
  331. Forced                                   : No
  332. Text #8
  333. ID                                       : 19
  334. Format                                   : PGS
  335. Muxing mode                              : zlib
  336. Codec ID                                 : S_HDMV/PGS
  337. Codec ID/Info                            : Picture based subtitle format used on BDs/HD-DVDs
  338. Duration                                 : 1 h 40 min
  339. Bit rate                                 : 28.6 kb/s
  340. Count of elements                        : 2046
  341. Stream size                              : 20.5 MiB (0%)
  342. Title                                    : Danish-PGS
  343. Language                                 : Danish
  344. Default                                  : No
  345. Forced                                   : No
  346. Text #9
  347. ID                                       : 20
  348. Format                                   : PGS
  349. Muxing mode                              : zlib
  350. Codec ID                                 : S_HDMV/PGS
  351. Codec ID/Info                            : Picture based subtitle format used on BDs/HD-DVDs
  352. Duration                                 : 1 h 40 min
  353. Bit rate                                 : 29.2 kb/s
  354. Count of elements                        : 2736
  355. Stream size                              : 21.0 MiB (0%)
  356. Title                                    : Estonian-PGS
  357. Language                                 : Estonian
  358. Default                                  : No
  359. Forced                                   : No
  360. Text #10
  361. ID                                       : 21
  362. Format                                   : PGS
  363. Muxing mode                              : zlib
  364. Codec ID                                 : S_HDMV/PGS
  365. Codec ID/Info                            : Picture based subtitle format used on BDs/HD-DVDs
  366. Duration                                 : 1 h 40 min
  367. Bit rate                                 : 27.1 kb/s
  368. Count of elements                        : 1749
  369. Stream size                              : 19.5 MiB (0%)
  370. Title                                    : Finnish-PGS
  371. Language                                 : Finnish
  372. Default                                  : No
  373. Forced                                   : No
  374. Text #11
  375. ID                                       : 22
  376. Format                                   : PGS
  377. Muxing mode                              : zlib
  378. Codec ID                                 : S_HDMV/PGS
  379. Codec ID/Info                            : Picture based subtitle format used on BDs/HD-DVDs
  380. Duration                                 : 1 h 40 min
  381. Bit rate                                 : 21.4 kb/s
  382. Count of elements                        : 2500
  383. Stream size                              : 15.4 MiB (0%)
  384. Title                                    : French-PGS
  385. Language                                 : French
  386. Default                                  : No
  387. Forced                                   : No
  388. Text #12
  389. ID                                       : 23
  390. Format                                   : PGS
  391. Muxing mode                              : zlib
  392. Codec ID                                 : S_HDMV/PGS
  393. Codec ID/Info                            : Picture based subtitle format used on BDs/HD-DVDs
  394. Duration                                 : 1 h 40 min
  395. Bit rate                                 : 30.0 kb/s
  396. Count of elements                        : 2830
  397. Stream size                              : 21.6 MiB (0%)
  398. Title                                    : Korean-PGS
  399. Language                                 : Korean
  400. Default                                  : No
  401. Forced                                   : No
  402. Text #13
  403. ID                                       : 24
  404. Format                                   : PGS
  405. Muxing mode                              : zlib
  406. Codec ID                                 : S_HDMV/PGS
  407. Codec ID/Info                            : Picture based subtitle format used on BDs/HD-DVDs
  408. Duration                                 : 1 h 40 min
  409. Bit rate                                 : 28.7 kb/s
  410. Count of elements                        : 2736
  411. Stream size                              : 20.6 MiB (0%)
  412. Title                                    : Latvian-PGS
  413. Language                                 : Latvian
  414. Default                                  : No
  415. Forced                                   : No
  416. Text #14
  417. ID                                       : 25
  418. Format                                   : PGS
  419. Muxing mode                              : zlib
  420. Codec ID                                 : S_HDMV/PGS
  421. Codec ID/Info                            : Picture based subtitle format used on BDs/HD-DVDs
  422. Duration                                 : 1 h 40 min
  423. Bit rate                                 : 28.0 kb/s
  424. Count of elements                        : 2736
  425. Stream size                              : 20.1 MiB (0%)
  426. Title                                    : Lithuanian-PGS
  427. Language                                 : Lithuanian
  428. Default                                  : No
  429. Forced                                   : No
  430. Text #15
  431. ID                                       : 26
  432. Format                                   : PGS
  433. Muxing mode                              : zlib
  434. Codec ID                                 : S_HDMV/PGS
  435. Codec ID/Info                            : Picture based subtitle format used on BDs/HD-DVDs
  436. Duration                                 : 1 h 40 min
  437. Bit rate                                 : 27.7 kb/s
  438. Count of elements                        : 2060
  439. Stream size                              : 19.9 MiB (0%)
  440. Title                                    : Norwegian-PGS
  441. Language                                 : Norwegian
  442. Default                                  : No
  443. Forced                                   : No
  444. Text #16
  445. ID                                       : 27
  446. Format                                   : PGS
  447. Muxing mode                              : zlib
  448. Codec ID                                 : S_HDMV/PGS
  449. Codec ID/Info                            : Picture based subtitle format used on BDs/HD-DVDs
  450. Duration                                 : 1 h 40 min
  451. Bit rate                                 : 29.1 kb/s
  452. Count of elements                        : 2740
  453. Stream size                              : 20.9 MiB (0%)
  454. Title                                    : Russian-PGS
  455. Language                                 : Russian
  456. Default                                  : No
  457. Forced                                   : No
  458. Text #17
  459. ID                                       : 28
  460. Format                                   : PGS
  461. Muxing mode                              : zlib
  462. Codec ID                                 : S_HDMV/PGS
  463. Codec ID/Info                            : Picture based subtitle format used on BDs/HD-DVDs
  464. Duration                                 : 1 h 40 min
  465. Bit rate                                 : 32.9 kb/s
  466. Count of elements                        : 2740
  467. Stream size                              : 23.7 MiB (0%)
  468. Title                                    : Spanish-PGS
  469. Language                                 : Spanish
  470. Default                                  : No
  471. Forced                                   : No
  472. Text #18
  473. ID                                       : 29
  474. Format                                   : PGS
  475. Muxing mode                              : zlib
  476. Codec ID                                 : S_HDMV/PGS
  477. Codec ID/Info                            : Picture based subtitle format used on BDs/HD-DVDs
  478. Duration                                 : 1 h 40 min
  479. Bit rate                                 : 65 b/s
  480. Count of elements                        : 6
  481. Stream size                              : 48.2 KiB (0%)
  482. Title                                    : Spanish-PGS
  483. Language                                 : Spanish
  484. Default                                  : No
  485. Forced                                   : No
  486. Text #19
  487. ID                                       : 30
  488. Format                                   : PGS
  489. Muxing mode                              : zlib
  490. Codec ID                                 : S_HDMV/PGS
  491. Codec ID/Info                            : Picture based subtitle format used on BDs/HD-DVDs
  492. Duration                                 : 1 h 40 min
  493. Bit rate                                 : 29.1 kb/s
  494. Count of elements                        : 2362
  495. Stream size                              : 21.0 MiB (0%)
  496. Title                                    : Spanish-PGS
  497. Language                                 : Spanish
  498. Default                                  : No
  499. Forced                                   : No
  500. Text #20
  501. ID                                       : 31
  502. Format                                   : PGS
  503. Muxing mode                              : zlib
  504. Codec ID                                 : S_HDMV/PGS
  505. Codec ID/Info                            : Picture based subtitle format used on BDs/HD-DVDs
  506. Duration                                 : 1 h 40 min
  507. Bit rate                                 : 26.9 kb/s
  508. Count of elements                        : 1865
  509. Stream size                              : 19.3 MiB (0%)
  510. Title                                    : Swedish-PGS
  511. Language                                 : Swedish
  512. Default                                  : No
  513. Forced                                   : No
  514. Text #21
  515. ID                                       : 32
  516. Format                                   : PGS
  517. Muxing mode                              : zlib
  518. Codec ID                                 : S_HDMV/PGS
  519. Codec ID/Info                            : Picture based subtitle format used on BDs/HD-DVDs
  520. Duration                                 : 1 h 40 min
  521. Bit rate                                 : 33.9 kb/s
  522. Count of elements                        : 2736
  523. Stream size                              : 24.4 MiB (0%)
  524. Title                                    : Thai-PGS
  525. Language                                 : Thai
  526. Default                                  : No
  527. Forced                                   : No
  528. Text #22
  529. ID                                       : 33
  530. Format                                   : PGS
  531. Muxing mode                              : zlib
  532. Codec ID                                 : S_HDMV/PGS
  533. Codec ID/Info                            : Picture based subtitle format used on BDs/HD-DVDs
  534. Duration                                 : 1 h 40 min
  535. Bit rate                                 : 35.1 kb/s
  536. Count of elements                        : 2740
  537. Stream size                              : 25.3 MiB (0%)
  538. Title                                    : Ukranian-PGS
  539. Language                                 : Ukrainian
  540. Default                                  : No
  541. Forced                                   : No
  542. Text #23
  543. ID                                       : 34
  544. Format                                   : PGS
  545. Muxing mode                              : zlib
  546. Codec ID                                 : S_HDMV/PGS
  547. Codec ID/Info                            : Picture based subtitle format used on BDs/HD-DVDs
  548. Duration                                 : 1 h 40 min
  549. Bit rate                                 : 35.1 kb/s
  550. Count of elements                        : 2458
  551. Stream size                              : 25.2 MiB (0%)
  552. Title                                    : Vietnamese-PGS
  553. Language                                 : Vietnamese
  554. Default                                  : No
  555. Forced                                   : No
  556. Text #24
  557. ID                                       : 35
  558. Format                                   : PGS
  559. Muxing mode                              : zlib
  560. Codec ID                                 : S_HDMV/PGS
  561. Codec ID/Info                            : Picture based subtitle format used on BDs/HD-DVDs
  562. Duration                                 : 1 h 36 min
  563. Bit rate                                 : 73.3 kb/s
  564. Count of elements                        : 3852
  565. Stream size                              : 50.7 MiB (0%)
  566. Title                                    : English-COMMENTARY-PGS
  567. Language                                 : English
  568. Default                                  : No
  569. Forced                                   : No
  570. Text #25
  571. ID                                       : 36
  572. Format                                   : PGS
  573. Muxing mode                              : zlib
  574. Codec ID                                 : S_HDMV/PGS
  575. Codec ID/Info                            : Picture based subtitle format used on BDs/HD-DVDs
  576. Duration                                 : 1 h 36 min
  577. Bit rate                                 : 64.0 kb/s
  578. Count of elements                        : 3545
  579. Stream size                              : 44.3 MiB (0%)
  580. Title                                    : English-COMMENTARY-PGS
  581. Language                                 : English
  582. Default                                  : No
  583. Forced                                   : No
  584. Text #26
  585. ID                                       : 37
  586. Format                                   : PGS
  587. Muxing mode                              : zlib
  588. Codec ID                                 : S_HDMV/PGS
  589. Codec ID/Info                            : Picture based subtitle format used on BDs/HD-DVDs
  590. Duration                                 : 1 h 36 min
  591. Bit rate                                 : 49.8 kb/s
  592. Count of elements                        : 3549
  593. Stream size                              : 34.5 MiB (0%)
  594. Title                                    : Chinese-COMMENTARY-PGS
  595. Language                                 : Chinese
  596. Default                                  : No
  597. Forced                                   : No
  598. Text #27
  599. ID                                       : 38
  600. Format                                   : PGS
  601. Muxing mode                              : zlib
  602. Codec ID                                 : S_HDMV/PGS
  603. Codec ID/Info                            : Picture based subtitle format used on BDs/HD-DVDs
  604. Duration                                 : 1 h 36 min
  605. Bit rate                                 : 51.4 kb/s
  606. Count of elements                        : 3549
  607. Stream size                              : 35.6 MiB (0%)
  608. Title                                    : Korean-COMMENTARY-PGS
  609. Language                                 : Korean
  610. Default                                  : No
  611. Forced                                   : No
  612. Text #28
  613. ID                                       : 39
  614. Format                                   : PGS
  615. Muxing mode                              : zlib
  616. Codec ID                                 : S_HDMV/PGS
  617. Codec ID/Info                            : Picture based subtitle format used on BDs/HD-DVDs
  618. Duration                                 : 1 h 36 min
  619. Bit rate                                 : 56.1 kb/s
  620. Count of elements                        : 3549
  621. Stream size                              : 38.8 MiB (0%)
  622. Title                                    : Spanish-COMMENTARY-PGS
  623. Language                                 : Spanish
  624. Default                                  : No
  625. Forced                                   : No
  626. Text #29
  627. ID                                       : 40
  628. Format                                   : PGS
  629. Muxing mode                              : zlib
  630. Codec ID                                 : S_HDMV/PGS
  631. Codec ID/Info                            : Picture based subtitle format used on BDs/HD-DVDs
  632. Duration                                 : 1 h 36 min
  633. Bit rate                                 : 62.2 kb/s
  634. Count of elements                        : 3549
  635. Stream size                              : 43.1 MiB (0%)
  636. Title                                    : Spanish-COMMENTARY-PGS
  637. Language                                 : Spanish
  638. Default                                  : No
  639. Forced                                   : No
  640. Text #30
  641. ID                                       : 41
  642. Format                                   : PGS
  643. Muxing mode                              : zlib
  644. Codec ID                                 : S_HDMV/PGS
  645. Codec ID/Info                            : Picture based subtitle format used on BDs/HD-DVDs
  646. Duration                                 : 1 h 36 min
  647. Bit rate                                 : 59.4 kb/s
  648. Count of elements                        : 3549
  649. Stream size                              : 41.1 MiB (0%)
  650. Title                                    : Thai-COMMENTARY-PGS
  651. Language                                 : Thai
  652. Default                                  : No
  653. Forced                                   : No
  654. Menu
  655. 00:00:00.000                             : en:Chapter 01
  656. 00:03:35.256                             : en:Chapter 02
  657. 00:11:51.460                             : en:Chapter 03
  658. 00:16:14.390                             : en:Chapter 04
  659. 00:20:10.792                             : en:Chapter 05
  660. 00:25:31.029                             : en:Chapter 06
  661. 00:30:50.139                             : en:Chapter 07
  662. 00:36:18.885                             : en:Chapter 08
  663. 00:40:45.734                             : en:Chapter 09
  664. 00:45:30.853                             : en:Chapter 10
  665. 00:50:15.178                             : en:Chapter 11
  666. 00:56:58.915                             : en:Chapter 12
  667. 01:02:12.061                             : en:Chapter 13
  668. 01:08:56.507                             : en:Chapter 14
  669. 01:14:15.909                             : en:Chapter 15
  670. 01:23:50.316                             : en:Chapter 16
复制代码






                                       
                                       

                                       
                                       
                                       




回复

使用道具 举报

懒得打字嘛,点击右侧快捷回复 【右侧内容,后台自定义】
您需要登录后才可以回帖 登录 | 立即加入

本版积分规则

Archiver|小黑屋| 蓝光电影网 |网站地图

Copyright © 2021 Comsenz Inc. Powered by 蓝光电影网

蓝光电影网

本站内容由用户自主分享和转载自互联网,转载目的在于传递更多信息,并不代表本网赞同其观点和对其真实性负责。

如有侵权、违反国家法律政策行为,请联系我们,我们会第一时间及时清除和处理!

举报反馈邮箱:[email protected]

快速回复 返回顶部 返回列表