找回密码

蓝光电影网

查看: 21|回复: 0

[剧情] 冒名顶替 I.Was.Montys.Double.1958.1080p.BluRay.REMUX.AVC.LPCM.2.0-FGT

[复制链接]
蓝光币
515
发表于 2019-7-24 00:18:23 | 显示全部楼层 |阅读模式


◎译  名 滥竽充数
◎片  名 I Was Monty's Double
◎年  代 1958
◎产  地 英国
◎类  别 剧情 / 历史 / 战争
◎语  言 英语
◎上映日期 1958
◎IMDb评分  7.0/10 from 1035 users
◎IMDb链接  http://www.imdb.com/title/tt0051759
◎豆瓣评分 0/10 from 0 users
◎豆瓣链接 https://movie.douban.com/subject/5060687/
◎片  长 101 分钟
◎导  演 John Guillermin
◎编  剧 M.E. Clifton-James
◎主  演 M.E. Clifton James
      John Mills
      Cecil Parker

◎标  签 P-Mar-del-PlataA入围主比赛
◎简  介  
  这个故事发生在第二次天下大战快要竣事的日子里。那是 1944 年的春 天,德公法西斯在各个疆场上节节溃退,英美联军打击欧洲大陆已是早晚之 间的事了。德军最高统帅部也在亲近关心着这场行将到来的大战。为了迷惑 仇敌,转移仇敌的视野,英国情报部分想出了一个法子,就是派人打扮成登 陆军队司令蒙哥马利将军,分开英国到非洲去,使德国人难以料中登陆军队 倡议打击的时候和地址。这一行动关系到不计其数战士的安危和登陆战的胜 败……
  1. Video
  2. ID                                       : 1
  3. Format                                   : AVC
  4. Format/Info                              : Advanced Video Codec
  5. Format profile                           : [email protected]
  6. Format settings                          : CABAC / 4 Ref Frames
  7. Format settings, CABAC                   : Yes
  8. Format settings, Reference frames        : 4 frames
  9. Codec ID                                 : V_MPEG4/ISO/AVC
  10. Duration                                 : 1 h 40 min
  11. Bit rate mode                            : Variable
  12. Bit rate                                 : 25.9 Mb/s
  13. Maximum bit rate                         : 35.0 Mb/s
  14. Width                                    : 1 920 pixels
  15. Height                                   : 1 080 pixels
  16. Display aspect ratio                     : 16:9
  17. Frame rate mode                          : Constant
  18. Frame rate                               : 24.000 FPS
  19. Color space                              : YUV
  20. Chroma subsampling                       : 4:2:0
  21. Bit depth                                : 8 bits
  22. Scan type                                : Progressive
  23. Bits/(Pixel*Frame)                       : 0.520
  24. Stream size                              : 18.3 GiB (92%)
  25. Title                                    : I.Was.Montys.Double.1958.1080p.BluRay.REMUX.AVC.LPCM.2.0-FGT
  26. Language                                 : English
  27. Default                                  : No
  28. Forced                                   : No
  29. Audio
  30. ID                                       : 2
  31. Format                                   : PCM
  32. Format settings                          : Little / Signed
  33. Codec ID                                 : A_PCM/INT/LIT
  34. Duration                                 : 1 h 40 min
  35. Bit rate mode                            : Constant
  36. Bit rate                                 : 2 304 kb/s
  37. Channel(s)                               : 2 channels
  38. Sampling rate                            : 48.0 kHz
  39. Frame rate                               : 30.000 FPS (1600 SPF)
  40. Bit depth                                : 24 bits
  41. Stream size                              : 1.62 GiB (8%)
  42. Title                                    : I.Was.Montys.Double.1958.1080p.BluRay.REMUX.AVC.LPCM.2.0-FGT
  43. Language                                 : English
  44. Default                                  : Yes
  45. Forced                                   : No
  46. Text
  47. ID                                       : 3
  48. Format                                   : PGS
  49. Muxing mode                              : zlib
  50. Codec ID                                 : S_HDMV/PGS
  51. Codec ID/Info                            : Picture based subtitle format used on BDs/HD-DVDs
  52. Duration                                 : 1 h 37 min
  53. Bit rate                                 : 42.7 kb/s
  54. Count of elements                        : 2610
  55. Stream size                              : 29.8 MiB (0%)
  56. Title                                    : English-PGS
  57. Language                                 : English
  58. Default                                  : Yes
  59. Forced                                   : No
  60. Menu
  61. 00:00:00.000                             : en:Chapter 01
  62. 00:10:27.166                             : en:Chapter 02
  63. 00:21:57.791                             : en:Chapter 03
  64. 00:34:06.500                             : en:Chapter 04
  65. 00:39:08.916                             : en:Chapter 05
  66. 00:49:20.333                             : en:Chapter 06
  67. 00:53:26.333                             : en:Chapter 07
  68. 01:03:12.416                             : en:Chapter 08
  69. 01:11:21.083                             : en:Chapter 09
  70. 01:16:24.333                             : en:Chapter 10
  71. 01:26:33.291                             : en:Chapter 11
  72. 01:38:56.500                             : en:Chapter 12
复制代码






                                       
                                       

                                       
                                       
                                       




回复

使用道具 举报

懒得打字嘛,点击右侧快捷回复 【右侧内容,后台自定义】
您需要登录后才可以回帖 登录 | 立即加入

本版积分规则

Archiver|小黑屋| 蓝光电影网 |网站地图

Copyright © 2021 Comsenz Inc. Powered by 蓝光电影网

蓝光电影网

本站内容由用户自主分享和转载自互联网,转载目的在于传递更多信息,并不代表本网赞同其观点和对其真实性负责。

如有侵权、违反国家法律政策行为,请联系我们,我们会第一时间及时清除和处理!

举报反馈邮箱:[email protected]

快速回复 返回顶部 返回列表