找回密码

蓝光电影网

查看: 17|回复: 0

[喜剧] 丑娃娃 UglyDolls.2019.1080p.BluRay.REMUX.AVC.DTS-HD.MA.7.1-FGT 19.51GB

[复制链接]
蓝光币
511
发表于 2019-7-24 18:50:02 | 显示全部楼层 |阅读模式


◎译  名 丑娃娃 / Ugly Dolls / Uglydoll / 样衰衰奇兵(港)
◎片  名 UglyDolls
◎年  代 2019
◎产  地 中国大陆 / 加拿大 / 美国
◎类  别 笑剧 / 动画 / 奇异 / 冒险
◎语  言 英语
◎上映日期 2019-05-03(美国) / 2019-08-09(中国大陆)
◎IMDb评分  4.5/10 from 1391 users
◎IMDb链接  http://www.imdb.com/title/tt1946502
◎豆瓣评分 0/10 from 0 users
◎豆瓣链接 https://movie.douban.com/subject/23774847/
◎片  长 87分钟
◎导  演 凯利·阿斯博瑞 Kelly Asbury
◎编  剧 大卫·霍瓦特 David Horvath / 金鲜珉 Sun-min Kim / 艾莉森·佩克 Alison Peck / 埃丽卡·里维诺亚 Erica Rivinoja / 王安安 Vivian Wang / 刘国庆
◎主  演 艾玛·罗伯茨 Emma Roberts
      加奈儿·梦奈 Janelle Monáe
      尼克·乔纳斯 Nick Jonas
      碧碧·雷克萨 Bebe Rexha
      婉妲·塞克丝 Wanda Sykes
      加布里埃尔·伊格莱西亚斯 Gabriel Iglesias
      凯莉·克拉克森 Kelly Clarkson
      查莉·XCX Charli XCX
      布莱克·谢尔顿 Blake Shelton
      皮特保罗 Pitbull
      王力宏 Lee-Hom Wang

◎标  签 动画 | 2019 | 美国 | 笑剧 | 治愈 | 奇异 | 搞笑 | 冒险
◎简  介  
  该片报告了丑娃娃们摸索未知天下寻觅真正自我的冒险之旅的故事。生活在丑娃镇上的丑娃娃们前往一个叫完善学院的地方探险,那边的娃娃们都精美标致,会在结业前接管练习,然后被送到实在天下里成为孩子们心爱的玩具。小希要和小伙伴们在那边接管练习变身完善娃娃,这对于他们来说并不轻易。小希能否完成演变,找到属于自己的仆人,故事还在继续展开……
  1. Video
  2. ID                                       : 1
  3. Format                                   : AVC
  4. Format/Info                              : Advanced Video Codec
  5. Format profile                           : [email protected]
  6. Format settings                          : CABAC / 4 Ref Frames
  7. Format settings, CABAC                   : Yes
  8. Format settings, Reference frames        : 4 frames
  9. Format settings, GOP                     : M=3, N=12
  10. Codec ID                                 : V_MPEG4/ISO/AVC
  11. Duration                                 : 1 h 27 min
  12. Bit rate mode                            : Variable
  13. Bit rate                                 : 27.6 Mb/s
  14. Maximum bit rate                         : 38.3 Mb/s
  15. Width                                    : 1 920 pixels
  16. Height                                   : 1 080 pixels
  17. Display aspect ratio                     : 16:9
  18. Frame rate mode                          : Constant
  19. Frame rate                               : 23.976 (24000/1001) FPS
  20. Color space                              : YUV
  21. Chroma subsampling                       : 4:2:0
  22. Bit depth                                : 8 bits
  23. Scan type                                : Progressive
  24. Bits/(Pixel*Frame)                       : 0.555
  25. Stream size                              : 16.9 GiB (87%)
  26. Title                                    : UglyDolls.2019.1080p.BluRay.REMUX.AVC.DTS-HD.MA.7.1-FGT
  27. Language                                 : English
  28. Default                                  : No
  29. Forced                                   : No
  30. Audio #1
  31. ID                                       : 2
  32. Format                                   : DTS XLL
  33. Format/Info                              : Digital Theater Systems
  34. Commercial name                          : DTS-HD Master Audio
  35. Codec ID                                 : A_DTS
  36. Duration                                 : 1 h 27 min
  37. Bit rate mode                            : Variable
  38. Bit rate                                 : 3 947 kb/s
  39. Channel(s)                               : 8 channels
  40. Channel layout                           : C L R LFE Lb Rb Lss Rss
  41. Sampling rate                            : 48.0 kHz
  42. Frame rate                               : 93.750 FPS (512 SPF)
  43. Bit depth                                : 24 bits
  44. Compression mode                         : Lossless
  45. Stream size                              : 2.42 GiB (12%)
  46. Title                                    : UglyDolls.2019.1080p.BluRay.REMUX.AVC.DTS-HD.MA.7.1-FGT
  47. Language                                 : English
  48. Default                                  : Yes
  49. Forced                                   : No
  50. Audio #2
  51. ID                                       : 3
  52. Format                                   : AC-3
  53. Format/Info                              : Audio Coding 3
  54. Commercial name                          : Dolby Digital
  55. Codec ID                                 : A_AC3
  56. Duration                                 : 1 h 27 min
  57. Bit rate mode                            : Constant
  58. Bit rate                                 : 192 kb/s
  59. Channel(s)                               : 2 channels
  60. Channel layout                           : L R
  61. Sampling rate                            : 48.0 kHz
  62. Frame rate                               : 31.250 FPS (1536 SPF)
  63. Bit depth                                : 16 bits
  64. Compression mode                         : Lossy
  65. Stream size                              : 121 MiB (1%)
  66. Title                                    : UglyDolls.2019.1080p.BluRay.REMUX.AVC.DTS-HD.MA.7.1-FGT
  67. Language                                 : English
  68. Service kind                             : Complete Main
  69. Default                                  : No
  70. Forced                                   : No
  71. Text #1
  72. ID                                       : 4
  73. Format                                   : UTF-8
  74. Codec ID                                 : S_TEXT/UTF8
  75. Codec ID/Info                            : UTF-8 Plain Text
  76. Duration                                 : 1 h 26 min
  77. Bit rate                                 : 85 b/s
  78. Count of elements                        : 1531
  79. Stream size                              : 53.9 KiB (0%)
  80. Title                                    : English-SRT
  81. Language                                 : English
  82. Default                                  : Yes
  83. Forced                                   : No
  84. Text #2
  85. ID                                       : 5
  86. Format                                   : PGS
  87. Muxing mode                              : zlib
  88. Codec ID                                 : S_HDMV/PGS
  89. Codec ID/Info                            : Picture based subtitle format used on BDs/HD-DVDs
  90. Duration                                 : 1 h 26 min
  91. Bit rate                                 : 56.9 kb/s
  92. Count of elements                        : 3092
  93. Stream size                              : 35.2 MiB (0%)
  94. Title                                    : English-PGS
  95. Language                                 : English
  96. Default                                  : No
  97. Forced                                   : No
  98. Text #3
  99. ID                                       : 6
  100. Format                                   : PGS
  101. Muxing mode                              : zlib
  102. Codec ID                                 : S_HDMV/PGS
  103. Codec ID/Info                            : Picture based subtitle format used on BDs/HD-DVDs
  104. Duration                                 : 1 h 26 min
  105. Bit rate                                 : 41.7 kb/s
  106. Count of elements                        : 2361
  107. Stream size                              : 25.7 MiB (0%)
  108. Title                                    : Spanish-PGS
  109. Language                                 : Spanish
  110. Default                                  : No
  111. Forced                                   : No
  112. Menu
  113. 00:00:00.000                             : en:Chapter 01
  114. 00:05:31.331                             : en:Chapter 02
  115. 00:09:12.385                             : en:Chapter 03
  116. 00:14:14.144                             : en:Chapter 04
  117. 00:18:58.303                             : en:Chapter 05
  118. 00:21:17.234                             : en:Chapter 06
  119. 00:25:28.151                             : en:Chapter 07
  120. 00:29:24.679                             : en:Chapter 08
  121. 00:32:01.127                             : en:Chapter 09
  122. 00:34:52.465                             : en:Chapter 10
  123. 00:40:21.919                             : en:Chapter 11
  124. 00:44:45.015                             : en:Chapter 12
  125. 00:51:15.739                             : en:Chapter 13
  126. 00:55:46.968                             : en:Chapter 14
  127. 00:59:33.570                             : en:Chapter 15
  128. 01:02:04.554                             : en:Chapter 16
  129. 01:07:04.979                             : en:Chapter 17
  130. 01:12:36.852                             : en:Chapter 18
  131. 01:16:31.128                             : en:Chapter 19
  132. 01:19:44.905                             : en:Chapter 20
复制代码






                                       
                                       

                                       
                                       
                                       




回复

使用道具 举报

懒得打字嘛,点击右侧快捷回复 【右侧内容,后台自定义】
您需要登录后才可以回帖 登录 | 立即加入

本版积分规则

Archiver|小黑屋| 蓝光电影网 |网站地图

Copyright © 2021 Comsenz Inc. Powered by 蓝光电影网

蓝光电影网

本站内容由用户自主分享和转载自互联网,转载目的在于传递更多信息,并不代表本网赞同其观点和对其真实性负责。

如有侵权、违反国家法律政策行为,请联系我们,我们会第一时间及时清除和处理!

举报反馈邮箱:[email protected]

快速回复 返回顶部 返回列表