找回密码

蓝光电影网

查看: 20|回复: 0

[喜剧] 越战黑金刚/机器战将 Robowar.1988.1080p.BluRay.REMUX.AVC.DTS-HD.MA.2.0-FGT 24.27GB

[复制链接]
蓝光币
519
发表于 2019-7-20 23:32:41 | 显示全部楼层 |阅读模式


◎译  名 越战黑金刚 / 机械战将
◎片  名 Robowar - Robot da guerra
◎年  代 1988
◎产  地 意大利
◎类  别 笑剧 / 行动 / 科幻 / 冒险
◎语  言 英语
◎上映日期 1988
◎IMDb评分  4.2/10 from 564 users
◎IMDb链接  http://www.imdb.com/title/tt0096000
◎豆瓣评分 5.2/10 from 65 users
◎豆瓣链接 https://movie.douban.com/subject/5115694/
◎片  长 92 分钟
◎导  演 Bruno Mattei
◎编  剧 Rossella Drudi
◎主  演 莱伯·布朗 Reb Brown
      Catherine Hickland
      克劳迪奥·弗拉加索 Claudio Fragasso
      Luciano Pigozzi

◎标  签 越战黑金刚 | 行动 | 科幻 | 血腥 | 越战 | 可骇 | 铁血战士 | 美国
◎简  介  
  越战时代(现实应当是入侵巴拿马)美军奥秘研制的机械人代号黑金刚忽然暴走。一队雇佣军潜入森林停止搜索。大部分被干掉。最初队长与黑金刚决一死战时发现黑金刚实在是自己昔日战友革新而成。黑金刚在最初关头转意转意,启动自我扑灭。。。。
  1. Video
  2. ID                                       : 1
  3. Format                                   : AVC
  4. Format/Info                              : Advanced Video Codec
  5. Format profile                           : [email protected]
  6. Format settings                          : CABAC / 4 Ref Frames
  7. Format settings, CABAC                   : Yes
  8. Format settings, ReFrames                : 4 frames
  9. Codec ID                                 : V_MPEG4/ISO/AVC
  10. Duration                                 : 1 h 30 min
  11. Bit rate mode                            : Variable
  12. Bit rate                                 : 35.0 Mb/s
  13. Width                                    : 1 920 pixels
  14. Height                                   : 1 080 pixels
  15. Display aspect ratio                     : 16:9
  16. Frame rate mode                          : Constant
  17. Frame rate                               : 23.976 (24000/1001) FPS
  18. Standard                                 : NTSC
  19. Color space                              : YUV
  20. Chroma subsampling                       : 4:2:0
  21. Bit depth                                : 8 bits
  22. Scan type                                : Progressive
  23. Bits/(Pixel*Frame)                       : 0.704
  24. Stream size                              : 22.2 GiB (91%)
  25. Title                                    : Robowar.1988.1080p.BluRay.REMUX.AVC.DTS-HD.MA.2.0-FGT
  26. Language                                 : English
  27. Default                                  : No
  28. Forced                                   : No
  29. Color range                              : Limited
  30. Color primaries                          : BT.709
  31. Transfer characteristics                 : BT.709
  32. Matrix coefficients                      : BT.709
  33. Audio #1
  34. ID                                       : 2
  35. Format                                   : DTS XLL
  36. Format/Info                              : Digital Theater Systems
  37. Commercial name                          : DTS-HD Master Audio
  38. Codec ID                                 : A_DTS
  39. Duration                                 : 1 h 30 min
  40. Bit rate mode                            : Variable
  41. Bit rate                                 : 1 655 kb/s
  42. Channel(s)                               : 2 channels
  43. Channel layout                           : L R
  44. Sampling rate                            : 48.0 kHz
  45. Frame rate                               : 93.750 FPS (512 SPF)
  46. Bit depth                                : 16 bits
  47. Compression mode                         : Lossless
  48. Stream size                              : 1.05 GiB (4%)
  49. Title                                    : Robowar.1988.1080p.BluRay.REMUX.AVC.DTS-HD.MA.2.0-FGT
  50. Language                                 : English
  51. Default                                  : Yes
  52. Forced                                   : No
  53. Audio #2
  54. ID                                       : 3
  55. Format                                   : DTS XLL
  56. Format/Info                              : Digital Theater Systems
  57. Commercial name                          : DTS-HD Master Audio
  58. Codec ID                                 : A_DTS
  59. Duration                                 : 1 h 30 min
  60. Bit rate mode                            : Variable
  61. Bit rate                                 : 1 655 kb/s
  62. Channel(s)                               : 2 channels
  63. Channel layout                           : L R
  64. Sampling rate                            : 48.0 kHz
  65. Frame rate                               : 93.750 FPS (512 SPF)
  66. Bit depth                                : 16 bits
  67. Compression mode                         : Lossless
  68. Stream size                              : 1.05 GiB (4%)
  69. Title                                    : Robowar.1988.1080p.BluRay.REMUX.AVC.DTS-HD.MA.2.0-FGT
  70. Language                                 : Italian
  71. Default                                  : No
  72. Forced                                   : No
  73. Text #1
  74. ID                                       : 4
  75. Format                                   : PGS
  76. Muxing mode                              : zlib
  77. Codec ID                                 : S_HDMV/PGS
  78. Codec ID/Info                            : Picture based subtitle format used on BDs/HD-DVDs
  79. Duration                                 : 1 h 30 min
  80. Bit rate                                 : 22.7 kb/s
  81. Count of elements                        : 2461
  82. Stream size                              : 14.8 MiB (0%)
  83. Title                                    : English-PGS
  84. Language                                 : English
  85. Default                                  : No
  86. Forced                                   : No
  87. Text #2
  88. ID                                       : 5
  89. Format                                   : PGS
  90. Muxing mode                              : zlib
  91. Codec ID                                 : S_HDMV/PGS
  92. Codec ID/Info                            : Picture based subtitle format used on BDs/HD-DVDs
  93. Duration                                 : 1 h 28 min
  94. Bit rate                                 : 14.3 kb/s
  95. Count of elements                        : 1301
  96. Stream size                              : 8.98 MiB (0%)
  97. Title                                    : English-PGS
  98. Language                                 : English
  99. Default                                  : No
  100. Forced                                   : No
  101. Menu
  102. 00:00:00.000                             : en:Chapter 01
  103. 00:12:35.629                             : en:Chapter 02
  104. 00:22:33.560                             : en:Chapter 03
  105. 00:34:45.374                             : en:Chapter 04
  106. 00:43:39.575                             : en:Chapter 05
  107. 00:53:00.343                             : en:Chapter 06
  108. 01:04:38.165                             : en:Chapter 07
  109. 01:24:20.096                             : en:Chapter 08
  110. 01:30:42.770                             : en:Chapter 09
复制代码






                                       
                                       

                                       
                                       
                                       




回复

使用道具 举报

懒得打字嘛,点击右侧快捷回复 【右侧内容,后台自定义】
您需要登录后才可以回帖 登录 | 立即加入

本版积分规则

Archiver|小黑屋| 蓝光电影网 |网站地图

Copyright © 2021 Comsenz Inc. Powered by 蓝光电影网

蓝光电影网

本站内容由用户自主分享和转载自互联网,转载目的在于传递更多信息,并不代表本网赞同其观点和对其真实性负责。

如有侵权、违反国家法律政策行为,请联系我们,我们会第一时间及时清除和处理!

举报反馈邮箱:[email protected]

快速回复 返回顶部 返回列表